<?xml version="1.0" standalone="no"?>
<!DOCTYPE svg PUBLIC "-//W3C//DTD SVG 1.1//EN" "http://www.w3.org/Graphics/SVG/1.1/DTD/svg11.dtd" >
<svg xmlns="http://www.w3.org/2000/svg" xmlns:xlink="http://www.w3.org/1999/xlink" version="1.1">
<metadata>
Created by FontForge 20170731 at Sun Nov 25 13:44:30 2007
 By Aleksey,,,
Copyright (c) 2005-2006 by Joshua Darden, Inc. All rights reserved.
</metadata>
<defs>
<font id="Omnes" horiz-adv-x="500" >
  <font-face 
    font-family="Omnes"
    font-weight="400"
    font-stretch="normal"
    units-per-em="1000"
    panose-1="2 0 5 6 4 0 0 2 0 4"
    ascent="800"
    descent="-200"
    x-height="476"
    cap-height="651"
    bbox="-84 -229.923 1049 889"
    underline-thickness="20"
    underline-position="-163"
    unicode-range="U+0020-FB02"
  />
<missing-glyph 
 />
    <glyph glyph-name="fi" unicode="fi" horiz-adv-x="539" 
d="M431 -4q-29 0 -29 31v422q0 31 29 31h7q29 0 29 -31v-422q0 -31 -29 -31h-7zM111 418h-70q-31 0 -31 26v6q0 26 31 26h70v44q0 82 35.5 125.5t104.5 43.5q46 0 70.5 -16.5t24.5 -39.5q0 -10 -4.5 -18t-9 -11t-5.5 -2q-29 29 -76 29q-40 0 -58.5 -27.5t-18.5 -86.5v-41h96
q31 0 31 -26v-6q0 -26 -31 -26h-95v-391q0 -31 -28 -31h-7q-29 0 -29 31v391zM434 595q-42 0 -42 43t44 43q42 0 42 -43t-44 -43z" />
    <glyph glyph-name="fl" unicode="fl" horiz-adv-x="539" 
d="M431 -4q-29 0 -29 31v647q0 1 3 2.5t8 3t11 1.5q43 0 43 -63v-591q0 -31 -29 -31h-7zM111 418h-70q-31 0 -31 26v6q0 26 31 26h70v44q0 82 35.5 125.5t104.5 43.5q46 0 70.5 -16.5t24.5 -39.5q0 -10 -4.5 -18t-9 -11t-5.5 -2q-29 29 -76 29q-40 0 -58.5 -27.5
t-18.5 -86.5v-41h96q31 0 31 -26v-6q0 -26 -31 -26h-95v-391q0 -31 -28 -31h-7q-29 0 -29 31v391z" />
    <glyph glyph-name=".notdef" 
 />
    <glyph glyph-name=".null" horiz-adv-x="0" 
 />
    <glyph glyph-name="nonmarkingreturn" horiz-adv-x="333" 
 />
    <glyph glyph-name="space" unicode=" " horiz-adv-x="170" 
 />
    <glyph glyph-name="exclam" unicode="!" horiz-adv-x="247" 
d="M119 178q-13 0 -15 24l-22 410q-1 39 29 39h25q30 0 29 -39l-22 -410q-2 -24 -16 -24h-8zM118 -6q-44 0 -44 44v10q0 45 44 45h10q45 0 45 -45v-10q0 -44 -45 -44h-10z" />
    <glyph glyph-name="quotedbl" unicode="&#x22;" horiz-adv-x="357" 
d="M247 391q-14 0 -17 26l-19 179q-3 31 7 43t34 12t34 -12t7 -43l-19 -179q-3 -26 -17 -26h-10zM99 391q-14 0 -17 26l-19 179q-3 31 7 43t34 12t34 -12t7 -43l-19 -179q-3 -26 -17 -26h-10z" />
    <glyph glyph-name="numbersign" unicode="#" horiz-adv-x="651" 
d="M425 175l-53 -176q0 -3 -12 -3q-14 0 -24.5 10t-10.5 33q0 13 8 39l30 97h-165l-54 -176q0 -3 -12 -3q-14 0 -24.5 10t-10.5 33q0 13 8 39l30 97h-94q-31 0 -31 26v5q0 27 31 27h111l56 181h-93q-31 0 -31 26v5q0 27 31 27h110l54 176q0 3 12 3q14 0 24.5 -10t10.5 -33
q0 -13 -8 -39l-30 -97h165l54 176q0 3 12 3q14 0 24.5 -10t10.5 -33q0 -13 -8 -39l-30 -97h94q31 0 31 -26v-5q0 -27 -31 -27h-112l-55 -181h93q31 0 31 -26v-5q0 -27 -31 -27h-111zM382 231l56 185h-169l-56 -185h169z" />
    <glyph glyph-name="dollar" unicode="$" horiz-adv-x="541" 
d="M237 -10q-85 8 -142.5 48.5t-57.5 76.5q0 13 9.5 23.5t19.5 15t11 2.5q52 -90 163 -104v249q-40 10 -69 22t-58 32.5t-44 52t-15 73.5q0 68 52.5 117t132.5 59v58q0 31 27 31h7q26 0 26 -31v-57q81 -6 134 -42t53 -69q0 -13 -9.5 -23.5t-19.5 -15t-11 -2.5
q-21 36 -60.5 60.5t-89.5 30.5v-240q44 -10 75 -22.5t63 -33t48.5 -54t16.5 -77.5q0 -72 -57.5 -123t-144.5 -58v-60q0 -31 -27 -31h-7q-26 0 -26 31v61zM243 596q-53 -7 -87.5 -38.5t-34.5 -75.5q0 -47 30 -71t92 -41v226zM293 51q61 4 100 36.5t39 79.5q0 50 -36 76.5
t-103 44.5v-237z" />
    <glyph glyph-name="percent" unicode="%" horiz-adv-x="732" 
d="M186 347q-63 0 -106 43.5t-43 105.5v10q0 62 44 106.5t106 44.5q63 0 106 -43.5t43 -105.5v-10q0 -62 -44 -106.5t-106 -44.5zM113 -8q-2 -2 -9.5 0.5t-15 10t-7.5 17.5q0 22 30 55l503 586q2 2 9.5 0t15 -9.5t7.5 -18.5q0 -21 -30 -55zM545 -4q-63 0 -106 43.5
t-43 105.5v10q0 62 44 106.5t106 44.5q63 0 106 -43.5t43 -105.5v-10q0 -62 -44 -106.5t-106 -44.5zM187 399q39 0 64.5 27.5t25.5 68.5v14q0 41 -26 69t-65 28t-64.5 -27.5t-25.5 -69.5v-14q0 -41 26 -68.5t65 -27.5zM546 48q39 0 64.5 27.5t25.5 68.5v14q0 41 -26 69
t-65 28t-64.5 -27.5t-25.5 -69.5v-14q0 -41 26 -68.5t65 -27.5z" />
    <glyph glyph-name="ampersand" unicode="&#x26;" horiz-adv-x="651" 
d="M260 389q71 19 103.5 48t32.5 74q0 39 -26.5 65.5t-68.5 26.5q-46 0 -72 -27.5t-26 -69.5q0 -60 57 -117zM440 141l-209 192q-138 -41 -138 -148q0 -65 44.5 -102t115.5 -37q107 0 187 95zM301 351l173 -159q39 67 56 151q11 48 45 48q10 0 17 -4.5t10 -9t2 -6.5
q-26 -128 -85 -219l139 -128q2 -2 -0.5 -8.5t-12 -13t-24.5 -6.5q-28 0 -50 21l-89 84q-100 -113 -233 -113q-101 0 -163.5 51.5t-62.5 142.5q0 140 171 189q-57 66 -57 134q0 64 46.5 109t118.5 45q67 0 112 -42t45 -105q0 -115 -158 -161z" />
    <glyph glyph-name="quotesingle" unicode="'" horiz-adv-x="209" 
d="M99 391q-14 0 -17 26l-19 179q-3 31 7 43t34 12t34 -12t7 -43l-19 -179q-3 -26 -17 -26h-10z" />
    <glyph glyph-name="parenleft" unicode="(" horiz-adv-x="351" 
d="M317 -198q-43 0 -89 30t-86.5 82.5t-67 135t-26.5 176.5q0 91 26.5 172.5t66.5 135t87 84.5t89 31q30 0 30 -24q0 -7 -3.5 -15.5t-5.5 -9.5q-101 -22 -161.5 -128t-60.5 -245q0 -143 60 -248.5t162 -127.5q2 -1 5.5 -10t3.5 -15q0 -24 -30 -24z" />
    <glyph glyph-name="parenright" unicode=")" horiz-adv-x="351" 
d="M34 -198q-30 0 -30 24q0 6 3.5 15t5.5 10q102 22 162 127.5t60 248.5q0 139 -60.5 245t-161.5 128q-2 1 -5.5 9.5t-3.5 15.5q0 24 30 24q42 0 89 -31t87 -84.5t66.5 -135t26.5 -172.5q0 -94 -26.5 -176.5t-67 -135t-86.5 -82.5t-89 -30z" />
    <glyph glyph-name="asterisk" unicode="*" horiz-adv-x="377" 
d="M161 527l6 107q1 25 21 25h4q20 0 21 -25l4 -108l106 29q25 5 31 -12l1 -4q6 -20 -17 -28l-102 -39l15 -22l30 -46l15 -23q13 -22 -3 -33l-3 -2q-16 -11 -32 8l-69 86l-68 -86q-16 -18 -32 -8l-3 2q-16 11 -3 33l60 92l-102 38q-23 9 -16 28l1 4q5 17 30 12q7 -2 18 -5
t34 -9t38 -10z" />
    <glyph glyph-name="plus" unicode="+" horiz-adv-x="539" 
d="M239 239h-161q-31 0 -31 26v6q0 26 31 26h161v163q0 31 28 31h5q28 0 28 -31v-163h161q31 0 31 -26v-6q0 -26 -31 -26h-161v-174q0 -31 -28 -31h-5q-28 0 -28 31v174z" />
    <glyph glyph-name="comma" unicode="," horiz-adv-x="209" 
d="M48 -131q-5 -9 -22 -4.5t-11 19.5l60 179q5 14 8.5 20t11 10.5t19.5 4.5h5q13 0 21.5 -9t8.5 -26v-4q0 -23 -16 -48z" />
    <glyph glyph-name="hyphen" unicode="-" horiz-adv-x="366" 
d="M76 212q-31 0 -31 26v7q0 27 31 27h214q31 0 31 -27v-7q0 -26 -31 -26h-214z" />
    <glyph glyph-name="period" unicode="." horiz-adv-x="209" 
d="M99 -6q-44 0 -44 44v10q0 45 44 45h10q45 0 45 -45v-10q0 -44 -45 -44h-10z" />
    <glyph glyph-name="slash" unicode="/" horiz-adv-x="323" 
d="M52 -197q-42 0 -42 38q0 13 8 39l235 768q0 3 12 3q42 0 42 -37q0 -13 -8 -39l-235 -769q0 -3 -12 -3z" />
    <glyph glyph-name="zero" unicode="0" horiz-adv-x="629" 
d="M313 -12q-120 0 -188.5 80.5t-68.5 220.5v67q0 140 69.5 221.5t188.5 81.5q120 0 189.5 -81t69.5 -220v-67q0 -140 -70 -221.5t-190 -81.5zM314 47q91 0 141 64t50 180v63q0 116 -51 181.5t-141 65.5q-89 0 -139 -64.5t-50 -180.5v-63q0 -116 50.5 -181t139.5 -65z" />
    <glyph glyph-name="one" unicode="1" horiz-adv-x="347" 
d="M168 541q-27 -37 -74 -37q-32 0 -52.5 16t-20.5 41q0 10 5 19.5t10 14t6 3.5q22 -25 57 -25q32 0 54 22.5t24 55.5h29q30 0 30 -31v-593q0 -31 -30 -31h-9q-29 0 -29 31v514z" />
    <glyph glyph-name="two" unicode="2" horiz-adv-x="520" 
d="M108 62h353q32 0 32 -28v-5q0 -29 -32 -29h-376q-43 0 -43 41v20q0 50 15.5 89.5t48 69.5t61.5 48.5t75 41.5q96 49 123 72q48 40 48 91q0 58 -40 91t-110 33q-133 0 -172 -133q-2 -1 -12.5 -1.5t-22 10t-11.5 27.5q0 51 61.5 105.5t161.5 54.5q98 0 155 -50.5t57 -137.5
q0 -40 -14.5 -72t-47 -58t-59 -41.5t-74.5 -38.5q-44 -21 -69 -35.5t-53.5 -38t-41.5 -51.5t-13 -64v-11z" />
    <glyph glyph-name="three" unicode="3" horiz-adv-x="532" 
d="M359 347q61 -20 93.5 -63.5t32.5 -104.5q0 -89 -63.5 -140t-174.5 -51q-105 0 -167.5 48t-62.5 94q0 16 9.5 26.5t19 13t10.5 -0.5q21 -58 72 -90t120 -32q77 0 122.5 35.5t45.5 95.5q0 66 -44.5 100.5t-129.5 34.5h-56q-33 0 -33 27v4q0 27 31 27h69q70 0 107 30t37 85
q0 54 -39.5 84.5t-109.5 30.5q-60 0 -103.5 -27.5t-66.5 -74.5q-1 -2 -10.5 1t-19 13t-9.5 23q0 39 60.5 81t148.5 42q103 0 160.5 -45t57.5 -127q0 -107 -107 -140z" />
    <glyph glyph-name="four" unicode="4" horiz-adv-x="581" 
d="M102 245h273v340zM439 246h88q31 0 31 -29v-5q0 -28 -31 -28h-88v-157q0 -31 -29 -31h-9q-12 0 -20 9.5t-8 21.5v157h-1h-2h-1h-1h-2h-1h-2h-1h-1h-2h-1h-2h-1h-1h-2h-1h-2h-1h-2h-1h-1h-2h-1h-2h-1h-2h-1h-2h-1h-2h-1h-1h-2h-1h-2h-1h-2h-1h-2h-1h-2h-1h-2h-2h-1h-2h-1
h-2h-1h-2h-1h-2h-1h-2h-2h-1h-2h-1h-2h-1h-2h-2h-1h-2h-1h-2h-2h-1h-2h-2h-1h-2h-1h-2h-2h-1h-2h-2h-1h-2h-2h-1h-2h-2h-1h-2h-2h-1h-2h-2h-1h-2h-2h-2h-1h-2h-2h-1h-2h-2h-2h-1h-2h-2h-2h-1h-2h-2h-2h-1h-2h-2h-2h-1h-2h-2h-2h-2h-1h-2h-2h-2h-2h-2h-1h-2h-2h-2h-2h-2h-1
h-2h-2h-2h-2h-2h-2h-2h-1h-2h-2h-2h-2h-2h-2h-2h-2h-2h-2h-2h-2h-2h-1h-2h-2h-2h-2h-2h-2h-3h-2h-2h-2h-2h-2h-8q-22 0 -35 10.5t-13 25.5v20q0 21 28 55l257 317q19 24 29.5 31.5t31.5 7.5q29 0 41 -10.5t12 -33.5v-361z" />
    <glyph glyph-name="five" unicode="5" horiz-adv-x="528" 
d="M124 367q70 34 144 34q102 0 164.5 -55.5t62.5 -147.5q0 -97 -65 -153.5t-177 -56.5q-92 0 -157 42.5t-65 85.5q0 13 9.5 23t19.5 13t11 1q51 -104 184 -104q78 0 125 39.5t47 106.5q0 66 -43 104.5t-117 38.5q-99 0 -165 -48q-43 6 -43 47v272q0 16 11 27t27 11h334
q31 0 31 -29v-5q0 -28 -31 -28h-307v-218z" />
    <glyph glyph-name="six" unicode="6" horiz-adv-x="575" 
d="M123 328q35 33 86 55t105 22q101 0 161 -53.5t60 -142.5v-5q0 -93 -64.5 -154.5t-162.5 -61.5q-122 0 -187 80t-65 215v73q0 141 69.5 222t187.5 81q89 0 142 -35t53 -71q0 -11 -9 -20.5t-18 -14t-10 -2.5q-57 85 -158 85q-89 0 -139.5 -63t-50.5 -178v-32zM124 259
q5 -101 51.5 -157t128.5 -56q73 0 119 42.5t46 109.5v6q0 69 -41.5 106.5t-119.5 37.5q-52 0 -103 -25.5t-81 -63.5z" />
    <glyph glyph-name="seven" unicode="7" horiz-adv-x="518" 
d="M117 24l303 556h-363q-31 0 -31 30v5q0 32 31 32v0v0v0v0h1v0v0h1v0h1v0h1v0h1v0h1v0h1h1h1v0h1h1h1h1h1h1h1h1h1h1h1h1h1h1h1h1h1h1h1h1h1h1h1h1h1h1h1h1h1h1h1h1h1h1h1h1h1h1h1h1h1h1h1h1h1h1h1h1h1h1h1h1h1h1h1h1h1h1h1h1h1h1h1h1h1h1h1h1h2h1h1h1h1h1h1h1h1h2h1h1h1
h1h1h2h1h1h1h1h2h1h1h1h1h2h1h1h1h2h1h1h1h2h1h1h1h2h1h1h1h2h1h1h2h1h1h2h1h1h2h1h1h2h1h1h2h1h2h1h1h2h1h1h2h1h2h1h1h2h1h2h1h2h1h1h2h1h2h1h2h1h2h1h2h1h2h1h2h1h2h1h2h1h2h1h2h1h2h1h2h1h2h2h1h2h1h2h1h2h2h1h2h1h2h1h2h2h1h2h2h1h2h1h2h2h1h2h2h1h2h2h1h2h2h1h2h2h1h2
h2h1h2h2h1h2h2h2h1h2h2h2h1h2h2h1h2h2h2h2h1h2h2h2h1h2h2h2h2h1h2h2h2h2h1h2h2h2h2h2h1h2h2h2h2h2h2h2h1h2h2h2h2h2h2h2h2h2h2h2h2h1h2h2h2h9q39 0 39 -30v-6q0 -13 -18 -47l-290 -544q-13 -24 -36 -24q-11 0 -20.5 6t-14 12.5t-2.5 9.5z" />
    <glyph glyph-name="eight" unicode="8" horiz-adv-x="569" 
d="M285 46q85 0 129 33.5t44 93.5q0 59 -46 94.5t-128 35.5q-83 0 -128.5 -35t-45.5 -95q0 -57 46.5 -92t128.5 -35zM285 362q74 0 114 31t40 86q0 56 -40.5 89.5t-114.5 33.5q-77 0 -116 -32.5t-39 -90.5q0 -53 41.5 -85t114.5 -32zM174 333q-113 37 -113 148
q0 79 61.5 128.5t162.5 49.5q104 0 163 -47.5t59 -128.5q0 -110 -112 -149q64 -19 97.5 -62t33.5 -102q0 -79 -67.5 -130.5t-174.5 -51.5q-111 0 -176.5 49.5t-65.5 131.5q0 57 34 100.5t98 63.5z" />
    <glyph glyph-name="nine" unicode="9" horiz-adv-x="575" 
d="M452 309q-35 -33 -86 -55t-105 -22q-101 0 -161 53.5t-60 142.5v5q0 94 65 160t162 66q119 0 185.5 -78t66.5 -217v-73q0 -150 -67 -226.5t-195 -76.5q-89 0 -142 35t-53 71q0 11 9 20.5t18 14t10 2.5q57 -85 158 -85q98 0 146.5 59t48.5 182v22zM452 379
q-4 105 -50.5 163.5t-130.5 58.5q-72 0 -118.5 -47t-46.5 -115v-6q0 -69 41.5 -106.5t119.5 -37.5q53 0 103.5 25.5t81.5 64.5z" />
    <glyph glyph-name="colon" unicode=":" horiz-adv-x="239" 
d="M114 334q-44 0 -44 44v10q0 45 44 45h10q45 0 45 -45v-10q0 -44 -45 -44h-10zM114 -6q-44 0 -44 44v10q0 45 44 45h10q45 0 45 -45v-10q0 -44 -45 -44h-10z" />
    <glyph glyph-name="semicolon" unicode=";" horiz-adv-x="239" 
d="M114 334q-44 0 -44 44v10q0 45 44 45h10q45 0 45 -45v-10q0 -44 -45 -44h-10zM63 -131q-5 -9 -22 -4.5t-11 19.5l60 179q5 14 8.5 20t11 10.5t19.5 4.5h5q13 0 21.5 -9t8.5 -26v-4q0 -23 -16 -48z" />
    <glyph glyph-name="less" unicode="&#x3c;" horiz-adv-x="468" 
d="M377 406l-263 -138l263 -137q43 -23 41 -50q-1 -10 -5.5 -17.5t-9.5 -11t-7 -2.5l-327 175q-11 6 -15.5 14t-4.5 29q0 20 4.5 28t15.5 14l327 176q2 1 6.5 -3t9.5 -11.5t6 -16.5q3 -25 -41 -49z" />
    <glyph glyph-name="equal" unicode="=" horiz-adv-x="539" 
d="M88 346q-31 0 -31 27v7q0 27 31 27h363q31 0 31 -27v-7q0 -27 -31 -27h-363zM88 119q-31 0 -31 27v7q0 27 31 27h363q31 0 31 -27v-7q0 -27 -31 -27h-363z" />
    <glyph glyph-name="greater" unicode="&#x3e;" horiz-adv-x="467" 
d="M353 268l-263 138q-44 24 -41 49q1 9 6 16.5t9.5 11.5t6.5 3l327 -176q11 -6 15.5 -14t4.5 -28q0 -21 -4.5 -29t-15.5 -14l-327 -175q-2 -1 -7 2.5t-9.5 11t-5.5 17.5q-2 27 41 50z" />
    <glyph glyph-name="question" unicode="?" horiz-adv-x="463" 
d="M205 177q-14 0 -21.5 5t-6.5 16q2 55 22 94.5t47.5 60.5t54.5 38.5t46 41.5t19 56q0 51 -34 80.5t-95 29.5q-71 0 -107 -39t-45 -97q-1 -3 -13 -0.5t-24 13t-12 27.5q0 21 12 46t34.5 50.5t64 42.5t92.5 17q88 0 141 -46.5t53 -117.5q0 -38 -15 -67.5t-37 -46.5
t-48 -36.5t-48 -36.5t-37 -46.5t-15 -67.5q0 -17 -28 -17zM203 -6q-44 0 -44 44v10q0 45 44 45h10q45 0 45 -45v-10q0 -44 -45 -44h-10z" />
    <glyph glyph-name="at" unicode="@" horiz-adv-x="746" 
d="M447 302v52q-25 58 -83 58q-38 0 -61 -26t-23 -69t23 -69.5t60 -26.5q35 0 59.5 23t24.5 58zM447 419q5 47 41 47q6 0 12 -2t8.5 -4t2.5 -3v-161q0 -84 62 -84q79 0 79 145q0 116 -75 185t-200 69q-123 0 -201 -80.5t-78 -207.5q0 -125 81.5 -206t208.5 -81q93 0 159 43
q19 12 34 12q8 0 15.5 -7.5t11 -15.5t0.5 -10q-36 -29 -95 -49.5t-125 -20.5q-153 0 -246.5 92t-93.5 243q0 148 92 242t237 94q149 0 237 -81.5t88 -220.5q0 -93 -36.5 -143.5t-105.5 -50.5q-42 0 -70.5 18t-35.5 49q-35 -65 -106 -65q-58 0 -96.5 42.5t-38.5 109.5
t38.5 109t98.5 42q63 0 97 -49z" />
    <glyph glyph-name="A" unicode="A" horiz-adv-x="609" 
d="M186 271h233l-116 305zM442 211h-279l-70 -184q-12 -31 -39 -31q-9 0 -19 4t-15 8.5t-4 7.5l237 612q10 25 51 25t51 -25l237 -612q1 -3 -4.5 -7.5t-15 -8.5t-19.5 -4q-29 0 -41 31z" />
    <glyph glyph-name="B" unicode="B" horiz-adv-x="603" 
d="M115 0q-16 0 -27 11t-11 27v571q0 16 11 27t27 11h207q103 0 157 -43.5t54 -126.5q0 -104 -112 -141q70 -15 105 -57t35 -100q0 -179 -233 -179h-213zM145 358h180q62 0 100 32t38 84q0 112 -141 112h-177v-228zM145 61h182q87 0 125.5 28.5t38.5 92.5q0 116 -160 116v0
v0v0v0h-1v0h-1v0h-1v0h-1h-1h-1h-1h-1h-1h-1h-1h-1h-1h-1h-1h-1h-1h-1h-1h-1h-1h-1h-1h-1h-1h-1h-1h-1h-1h-1h-1h-1h-1h-1h-1h-2h-1h-1h-1h-1h-1h-1h-1h-2h-1h-1h-1h-1h-2h-1h-1h-1h-2h-1h-1h-1h-2h-1h-1h-2h-1h-1h-2h-1h-2h-1h-1h-2h-1h-2h-1h-1h-2h-1h-2h-1h-2h-1h-2h-1
h-2h-1h-2h-1h-2h-1h-2h-1h-2h-2h-1h-2h-1h-2h-2h-1h-2h-1h-2h-2h-1h-2h-2h-1h-2h-2h-1h-2h-2h-2h-1h-2h-2h-1h-2h-2h-2h-2h-1h-2h-2h-2h-1h-2h-2h-2h-2h-2h-1h-10v-237z" />
    <glyph glyph-name="C" unicode="C" horiz-adv-x="660" 
d="M371 -12q-142 0 -231.5 93t-89.5 241q0 149 90.5 243t233.5 94q104 0 172.5 -45.5t68.5 -82.5q0 -16 -9.5 -26.5t-19.5 -13.5t-11 -1q-30 52 -86 81t-117 29q-111 0 -181.5 -77t-70.5 -199q0 -121 72 -199t182 -78q72 0 129.5 34.5t79.5 92.5q1 3 11.5 0t21.5 -13.5
t11 -26.5q0 -41 -72 -93.5t-184 -52.5z" />
    <glyph glyph-name="D" unicode="D" horiz-adv-x="672" 
d="M115 0q-16 0 -27 11t-11 27v571q0 16 11 27t27 11h153q167 0 260.5 -85t93.5 -237q0 -153 -95 -239t-264 -86h-148zM145 60h122q136 0 210.5 69t74.5 194q0 124 -75.5 194t-208.5 70h-123v-527z" />
    <glyph glyph-name="E" unicode="E" horiz-adv-x="576" 
d="M115 0q-16 0 -27 11t-11 27v571q0 16 11 27t27 11h387q31 0 31 -28v-6q0 -28 -31 -28h-357v-223h286q31 0 31 -28v-4q0 -28 -31 -28h-286v-240h363q31 0 31 -27v-6q0 -29 -31 -29h-393z" />
    <glyph glyph-name="F" unicode="F" horiz-adv-x="533" 
d="M106 -4q-29 0 -29 31v582q0 16 11 27t27 11h362q31 0 31 -28v-6q0 -28 -31 -28h-332v-244h251q31 0 31 -28v-4q0 -28 -31 -28h-251v-254q0 -31 -30 -31h-9z" />
    <glyph glyph-name="G" unicode="G" horiz-adv-x="706" 
d="M582 102q-31 -54 -90 -84t-137 -30q-138 0 -221.5 93.5t-83.5 240.5q0 149 90.5 243t233.5 94q104 0 172.5 -45.5t68.5 -82.5q0 -17 -10 -27t-20 -12t-11 0q-30 51 -85.5 79.5t-116.5 28.5q-112 0 -182 -77t-70 -199q0 -123 65.5 -200t178.5 -77q87 0 147 46t71 120v56
h-182q-37 0 -37 28v4q0 29 37 29h192q22 0 36 -14.5t14 -35.5v-277q0 -7 -22 -7q-19 0 -28.5 13.5t-9.5 51.5v41z" />
    <glyph glyph-name="H" unicode="H" horiz-adv-x="679" 
d="M106 -4q-29 0 -29 31v593q0 31 29 31h9q30 0 30 -31v-265h389v265q0 31 29 31h9q30 0 30 -31v-593q0 -31 -30 -31h-9q-29 0 -29 31v266h-389v-266q0 -31 -30 -31h-9z" />
    <glyph glyph-name="I" unicode="I" horiz-adv-x="242" 
d="M116 -4q-29 0 -29 31v593q0 31 29 31h9q30 0 30 -31v-593q0 -31 -30 -31h-9z" />
    <glyph glyph-name="J" unicode="J" horiz-adv-x="437" 
d="M182 -12q-63 0 -109.5 31.5t-46.5 62.5q0 12 9.5 23t19.5 15.5t11 2.5q16 -34 46.5 -55t69.5 -21q65 0 92.5 36t27.5 121v416q0 31 30 31h9q29 0 29 -31v-416q0 -110 -45.5 -163t-142.5 -53z" />
    <glyph glyph-name="K" unicode="K" horiz-adv-x="556" 
d="M145 323v-296q0 -31 -30 -31h-9q-29 0 -29 31v593q0 31 29 31h9q30 0 30 -31v-281l296 291q21 21 39 21q16 0 24.5 -9t9.5 -17.5t0 -9.5l-294 -283l301 -301q2 -2 0 -10t-11.5 -16.5t-25.5 -8.5q-21 0 -37 16z" />
    <glyph glyph-name="L" unicode="L" horiz-adv-x="520" 
d="M115 0q-16 0 -27 11t-11 27v582q0 31 29 31h9q30 0 30 -31v-557h312q31 0 31 -29v-5q0 -29 -31 -29h-342z" />
    <glyph glyph-name="M" unicode="M" horiz-adv-x="741" 
d="M104 -4q-27 0 -27 31v581q0 19 13.5 31t35.5 12h16q24 0 35 -11t24 -40l170 -377l171 377q13 29 24 40t35 11h14q22 0 35.5 -12t13.5 -31v-581q0 -31 -29 -31h-8q-28 0 -28 31v546l-170 -369q-19 -43 -59 -43q-24 0 -36.5 10.5t-22.5 32.5l-169 369v-546q0 -31 -28 -31
h-10z" />
    <glyph glyph-name="N" unicode="N" horiz-adv-x="675" 
d="M104 -4q-27 0 -27 31v578q0 20 10 33t27 13h17q17 0 27.5 -8t24.5 -28l351 -509v514q0 31 28 31h9q27 0 27 -31v-578q0 -21 -9.5 -33.5t-25.5 -12.5h-5q-17 0 -25 5.5t-19 20.5l-373 539v-534q0 -31 -28 -31h-9z" />
    <glyph glyph-name="O" unicode="O" horiz-adv-x="744" 
d="M371 -12q-143 0 -232 93t-89 241t90.5 242.5t232.5 94.5t231.5 -93t89.5 -242q0 -148 -90 -242t-233 -94zM373 47q110 0 180.5 77t70.5 198t-71.5 199.5t-181.5 78.5t-180.5 -77.5t-70.5 -198.5t71.5 -199t181.5 -78z" />
    <glyph glyph-name="P" unicode="P" horiz-adv-x="553" 
d="M145 312h134q170 0 170 137t-167 137h-137v-274zM145 252v-225q0 -31 -30 -31h-9q-29 0 -29 31v582q0 16 11 27t27 11h166q113 0 175.5 -51t62.5 -145q0 -97 -62.5 -148t-183.5 -51h-128z" />
    <glyph glyph-name="Q" unicode="Q" horiz-adv-x="744" 
d="M526 95l-133 135q-10 10 -12 22t6 21l7 7q18 18 42 -5l133 -136q55 74 55 183q0 121 -71.5 199.5t-181.5 78.5t-180.5 -77.5t-70.5 -198.5t71.5 -199t181.5 -78q90 0 153 48zM613 96l77 -77q2 -2 -2 -9.5t-14 -14.5t-23 -7q-17 0 -34 17l-48 49q-85 -66 -198 -66
q-143 0 -232 93t-89 241t90.5 242.5t232.5 94.5t231.5 -93t89.5 -242q0 -134 -81 -228z" />
    <glyph glyph-name="R" unicode="R" horiz-adv-x="567" 
d="M144 330h155q78 0 117.5 34t39.5 94q0 128 -161 128h-151v-256zM312 272l206 -244q2 -3 -2.5 -10.5t-15 -14.5t-23.5 -7q-22 0 -42 24l-210 252h-81v-245q0 -31 -30 -31h-8q-29 0 -29 31v582q0 16 11 27t27 11h178q114 0 173.5 -47.5t59.5 -139.5q0 -88 -55.5 -137
t-158.5 -51z" />
    <glyph glyph-name="S" unicode="S" horiz-adv-x="541" 
d="M274 -12q-99 0 -168 43t-69 84q0 13 9.5 23.5t19.5 15t11 2.5q64 -109 196 -109q75 0 117 32t42 88q0 30 -13.5 52.5t-42.5 37t-53.5 22.5t-68.5 18q-45 11 -74 21t-61 30.5t-48 53.5t-16 79q0 76 62 127t155 51q92 0 153 -37.5t61 -74.5q0 -13 -9.5 -23.5t-19.5 -15
t-11 -2.5q-24 42 -69.5 68t-103.5 26q-68 0 -110 -32.5t-42 -84.5q0 -24 9 -42.5t20.5 -30t36.5 -21.5t44 -15t56 -14q36 -8 62 -16.5t56.5 -24t49.5 -34.5t31.5 -48.5t12.5 -66.5q0 -83 -61.5 -132.5t-163.5 -49.5z" />
    <glyph glyph-name="T" unicode="T" horiz-adv-x="584" 
d="M258 585h-203q-31 0 -31 28v5q0 29 31 29h474q31 0 31 -29v-5q0 -28 -31 -28h-203v-558q0 -31 -30 -31h-9q-29 0 -29 31v558z" />
    <glyph glyph-name="U" unicode="U" horiz-adv-x="639" 
d="M318 -12q-122 0 -186.5 68.5t-64.5 198.5v365q0 31 29 31h9q30 0 30 -31v-360q0 -211 185 -211t185 212v359q0 31 28 31h12q27 0 27 -31v-362q0 -131 -65.5 -200.5t-188.5 -69.5z" />
    <glyph glyph-name="V" unicode="V" horiz-adv-x="600" 
d="M301 72l204 548q12 31 39 31q9 0 19 -4t15 -8.5t4 -7.5l-237 -612q-10 -25 -45 -25t-45 25l-237 612q-1 3 4.5 7.5t15 8.5t19.5 4q29 0 41 -31z" />
    <glyph glyph-name="W" unicode="W" horiz-adv-x="904" 
d="M258 -7q-28 0 -39 6t-14 22l-150 615q-1 2 3.5 5.5t13.5 6.5t20 3q32 0 42 -42l124 -548l142 463q7 20 18 29t36 9t35.5 -8.5t17.5 -29.5l140 -461l127 546q6 23 13.5 32.5t24.5 9.5q11 0 20 -3t13.5 -6.5t3.5 -5.5l-150 -615q-3 -16 -14 -22t-39 -6q-24 0 -34 6.5
t-15 22.5l-142 473l-151 -473q-5 -16 -14 -22.5t-32 -6.5z" />
    <glyph glyph-name="X" unicode="X" horiz-adv-x="582" 
d="M108 631l185 -257l193 259q16 21 33 21q11 0 20 -7t12.5 -14.5t1.5 -10.5l-223 -296l223 -295q2 -3 -1.5 -10.5t-13 -14.5t-21.5 -7q-23 0 -38 20l-190 262l-196 -264q-16 -21 -33 -21q-11 0 -20 7t-12.5 14.5t-1.5 10.5l225 299l-217 292q-2 3 1.5 10.5t13 14.5t21.5 7
q24 0 38 -20z" />
    <glyph glyph-name="Y" unicode="Y" horiz-adv-x="549" 
d="M308 269v-242q0 -31 -30 -31h-9q-29 0 -29 31v242l-230 353q-2 3 2 9.5t14.5 13t24.5 6.5q21 0 34 -23l190 -297l189 296q16 24 34 24q13 0 23 -6.5t14.5 -13t2.5 -9.5z" />
    <glyph glyph-name="Z" unicode="Z" horiz-adv-x="604" 
d="M109 0q-55 0 -55 38v9q0 26 40 75l372 463h-380q-31 0 -31 28v5q0 29 31 29h401q54 0 54 -37v-9q0 -23 -39 -72l-375 -467h401q31 0 31 -28v-5q0 -29 -31 -29h-419z" />
    <glyph glyph-name="bracketleft" unicode="[" horiz-adv-x="323" 
d="M117 -197q-16 0 -27 11t-11 27v768q0 16 11 27t27 11h154q31 0 31 -26v-7q0 -26 -31 -26h-130v-726h130q31 0 31 -26v-7q0 -26 -31 -26h-154z" />
    <glyph glyph-name="backslash" unicode="\" horiz-adv-x="323" 
d="M271 -197q-12 0 -12 3l-235 769q-8 26 -8 39q0 37 42 37q12 0 12 -3l235 -768q8 -26 8 -39q0 -38 -42 -38z" />
    <glyph glyph-name="bracketright" unicode="]" horiz-adv-x="323" 
d="M52 -197q-31 0 -31 26v7q0 26 31 26h130v726h-130q-31 0 -31 26v7q0 26 31 26h154q16 0 27 -11t11 -27v-768q0 -16 -11 -27t-27 -11h-154z" />
    <glyph glyph-name="asciicircum" unicode="^" 
d="M249 558q-48 -65 -70 -88.5t-38 -23.5q-22 0 -22 23q0 21 32 58t63.5 63t35.5 26t35 -26t63 -63t32 -58q0 -23 -21 -23q-16 0 -39.5 24.5t-70.5 87.5z" />
    <glyph glyph-name="underscore" unicode="_" horiz-adv-x="465" 
d="M46 -62q-31 0 -31 28v5q0 29 31 29h373q31 0 31 -29v-5q0 -28 -31 -28h-373z" />
    <glyph glyph-name="grave" unicode="`" 
d="M157 620q-37 25 -37 50q0 12 9 19.5t21 7.5q22 0 46 -18q29 -21 60.5 -51.5t49 -52t15.5 -24.5q-3 -3 -29 4.5t-65 25.5t-70 39z" />
    <glyph glyph-name="a" unicode="a" horiz-adv-x="505" 
d="M207 43q74 0 122.5 41t48.5 105v44l-28 -1q-126 -5 -186.5 -30t-60.5 -80q0 -36 28 -57.5t76 -21.5zM378 284v17q0 61 -34.5 94t-99.5 33q-105 0 -152 -88q0 -1 -9 1.5t-18.5 11.5t-9.5 25q0 32 54.5 71t139.5 39q91 0 142 -49.5t51 -135.5v-300q0 -1 -3 -2.5t-8 -3
t-11 -1.5q-41 0 -41 63v18q-28 -41 -74.5 -64.5t-103.5 -23.5q-77 0 -120.5 36t-43.5 97q0 82 81.5 120t249.5 42h10z" />
    <glyph glyph-name="b" unicode="b" horiz-adv-x="569" 
d="M131 318v-112q0 -67 50.5 -114t118.5 -47q76 0 122 53.5t46 139.5q0 84 -47 138.5t-119 54.5q-122 0 -171 -113zM131 73v-46q0 -31 -28 -31h-7q-29 0 -29 31v647q0 1 3 2.5t8 3t11 1.5q43 0 43 -63v-220q68 90 177 90q96 0 160.5 -69t64.5 -180q0 -112 -64.5 -181.5
t-164.5 -69.5q-61 0 -106.5 24.5t-67.5 60.5z" />
    <glyph glyph-name="c" unicode="c" horiz-adv-x="518" 
d="M280 -12q-105 0 -175 71.5t-70 179.5t70 178.5t175 70.5q93 0 149 -45.5t56 -86.5q0 -13 -10.5 -22t-20.5 -9.5t-12 0.5q-44 105 -162 105q-77 0 -128 -54t-51 -137t51 -138t128 -55q118 0 162 105q2 1 12 0.5t20.5 -9.5t10.5 -22q0 -41 -56 -86.5t-149 -45.5z" />
    <glyph glyph-name="d" unicode="d" horiz-adv-x="569" 
d="M438 205v114q-49 112 -169 112q-76 0 -122 -53.5t-46 -139.5q0 -84 47 -138.5t119 -54.5q68 0 119.5 46.5t51.5 113.5zM437 404v270q0 1 3 2.5t8 3t11 1.5q43 0 43 -63v-591q0 -31 -29 -31h-7q-28 0 -28 31v52q-67 -91 -178 -91q-96 0 -160.5 69t-64.5 180
q0 112 64.5 181.5t164.5 69.5q60 0 105.5 -24t67.5 -60z" />
    <glyph glyph-name="e" unicode="e" horiz-adv-x="531" 
d="M103 276h325q-5 71 -46 113t-107 42q-67 0 -114 -43t-58 -112zM100 220q4 -76 54.5 -125t126.5 -49q110 0 163 85q1 2 10.5 -1t18.5 -12.5t9 -23.5q0 -31 -57 -68.5t-144 -37.5q-109 0 -177.5 69t-68.5 179q0 109 68 180.5t172 71.5q101 0 161.5 -65.5t60.5 -174.5v-6
q0 -13 -6 -17.5t-21 -4.5h-370z" />
    <glyph glyph-name="f" unicode="f" horiz-adv-x="330" 
d="M111 418h-70q-31 0 -31 26v6q0 26 31 26h70v44q0 82 35.5 125.5t104.5 43.5q46 0 70.5 -16.5t24.5 -39.5q0 -10 -4.5 -18t-9 -11t-5.5 -2q-29 29 -76 29q-40 0 -58.5 -27.5t-18.5 -86.5v-41h96q31 0 31 -26v-6q0 -26 -31 -26h-95v-391q0 -31 -28 -31h-7q-29 0 -29 31v391
z" />
    <glyph glyph-name="g" unicode="g" horiz-adv-x="471" 
d="M237 18q-72 -3 -122.5 -30t-50.5 -69q0 -77 163 -77q83 0 129.5 22.5t46.5 64.5q0 12 -5 22t-15 17.5t-21 13.5t-28.5 11t-30 8.5t-33.5 8.5t-33 8zM230 188q57 0 92.5 34t35.5 88t-36 89t-94 35q-56 0 -91 -34.5t-35 -89.5q0 -54 36 -88t92 -34zM349 451l33 53
q21 30 46 30q12 0 21.5 -7t13 -14t2.5 -8l-79 -88q39 -47 39 -105q0 -74 -56 -124.5t-140 -50.5q-17 0 -26 1q-7 -9 -7 -24q0 -7 2.5 -12.5t9 -10t13 -7.5t19.5 -6.5t23.5 -6t30 -7t34.5 -8.5q140 -35 140 -125q0 -67 -64 -104.5t-179 -37.5q-224 0 -224 130q0 52 43 88
t111 49q-21 18 -21 46q0 25 22 47q-54 19 -87 62t-33 97q0 75 55.5 127.5t137.5 52.5q67 0 120 -37z" />
    <glyph glyph-name="h" unicode="h" horiz-adv-x="545" 
d="M132 400q56 88 161 88q92 0 140.5 -56.5t48.5 -153.5v-251q0 -31 -29 -31h-7q-29 0 -29 31v247q0 72 -34 112.5t-94 40.5q-71 0 -114 -44.5t-43 -118.5v-237q0 -31 -29 -31h-7q-29 0 -29 31v647q0 1 3 2.5t8 3t11 1.5q43 0 43 -63v-218z" />
    <glyph glyph-name="i" unicode="i" horiz-adv-x="209" 
d="M104 595q-42 0 -42 43t44 43q42 0 42 -43t-44 -43zM101 -4q-29 0 -29 31v422q0 31 29 31h7q29 0 29 -31v-422q0 -31 -29 -31h-7z" />
    <glyph glyph-name="j" unicode="j" horiz-adv-x="209" 
d="M104 595q-42 0 -42 43t44 43q42 0 42 -43t-44 -43zM6 -200q-40 0 -65 16t-25 36q0 10 4.5 19t9 13.5t5.5 3.5q30 -30 70 -30q36 0 51.5 21t15.5 68v502q0 31 29 31h7q29 0 29 -31v-507q0 -69 -33.5 -105.5t-97.5 -36.5z" />
    <glyph glyph-name="k" unicode="k" horiz-adv-x="443" 
d="M132 242v-215q0 -31 -29 -31h-7q-29 0 -29 31v647q0 1 3 2.5t8 3t11 1.5q43 0 43 -63v-360l192 196q25 26 44 26q12 0 20.5 -7.5t11 -15t0.5 -9.5l-197 -195l228 -223q2 -2 -1.5 -10t-12.5 -16t-21 -8q-17 0 -42 25z" />
    <glyph glyph-name="l" unicode="l" horiz-adv-x="209" 
d="M101 -4q-29 0 -29 31v647q0 1 3 2.5t8 3t11 1.5q43 0 43 -63v-591q0 -31 -29 -31h-7z" />
    <glyph glyph-name="m" unicode="m" horiz-adv-x="855" 
d="M131 405q56 83 150 83q118 0 158 -102q26 46 69.5 74t99.5 28q90 0 137 -51t47 -150v-260q0 -31 -29 -31h-7q-29 0 -29 31v256q0 144 -123 144q-44 0 -82.5 -26.5t-59.5 -69.5v-304q0 -31 -29 -31h-7q-29 0 -29 31v251q0 149 -123 149q-44 0 -82.5 -26.5t-59.5 -69.5
v-304q0 -31 -29 -31h-7q-29 0 -29 31v446q0 1 3 2.5t8 3t11 1.5q42 0 42 -63v-12z" />
    <glyph glyph-name="n" unicode="n" horiz-adv-x="545" 
d="M131 402q57 86 162 86q92 0 140.5 -56.5t48.5 -153.5v-251q0 -31 -29 -31h-7q-29 0 -29 31v247q0 72 -34 112.5t-94 40.5q-54 0 -94.5 -27t-62.5 -74v-299q0 -31 -29 -31h-7q-29 0 -29 31v446q0 1 3 2.5t8 3t11 1.5q42 0 42 -63v-15z" />
    <glyph glyph-name="o" unicode="o" horiz-adv-x="562" 
d="M281 -12q-107 0 -176.5 71t-69.5 180q0 108 69.5 178.5t176.5 70.5q106 0 175.5 -71t69.5 -180q0 -108 -69.5 -178.5t-175.5 -70.5zM281 45q77 0 128 54.5t51 137.5t-51 138.5t-128 55.5t-128.5 -54.5t-51.5 -137.5t51.5 -138.5t128.5 -55.5z" />
    <glyph glyph-name="p" unicode="p" horiz-adv-x="569" 
d="M131 318v-112q0 -67 50.5 -114t118.5 -47q76 0 122 53.5t46 139.5q0 84 -47 138.5t-119 54.5q-122 0 -171 -113zM132 80v-246q0 -31 -29 -31h-7q-29 0 -29 31v639q0 1 3 2.5t8 3t11 1.5q42 0 42 -63v-20q67 91 178 91q96 0 160.5 -69t64.5 -180q0 -112 -64.5 -181.5
t-164.5 -69.5q-60 0 -105.5 26.5t-67.5 65.5z" />
    <glyph glyph-name="q" unicode="q" horiz-adv-x="569" 
d="M438 207v110q-49 114 -169 114q-76 0 -122 -53.5t-46 -139.5q0 -84 47 -138.5t119 -54.5q68 0 119.5 47.5t51.5 114.5zM438 403v14q0 63 42 63q6 0 11 -1.5t8 -3t3 -2.5v-639q0 -31 -29 -31h-7q-29 0 -29 31v244q-68 -90 -177 -90q-96 0 -160.5 69t-64.5 180
q0 112 64.5 181.5t164.5 69.5q61 0 106.5 -24.5t67.5 -60.5z" />
    <glyph glyph-name="r" unicode="r" horiz-adv-x="338" 
d="M131 388q32 100 126 100q69 0 69 -49q0 -11 -4 -19.5t-8.5 -12t-5.5 -2.5q-23 20 -58 20q-61 0 -89.5 -57t-28.5 -154v-187q0 -31 -29 -31h-7q-29 0 -29 31v446q0 1 3 2.5t8 3t11 1.5q42 0 42 -63v-29z" />
    <glyph glyph-name="s" unicode="s" horiz-adv-x="454" 
d="M227 -12q-87 0 -141.5 32.5t-54.5 64.5q0 8 3.5 14.5t8.5 10.5t10 6.5t8.5 3.5t4.5 0q56 -77 163 -77q58 0 90.5 21.5t32.5 58.5q0 17 -6.5 29.5t-16 20.5t-30 15.5t-37.5 11.5t-50 11q-30 6 -47 10.5t-43 15.5t-40.5 23.5t-25.5 34t-11 49.5q0 64 50 104t132 40
q80 0 128 -30t48 -61q0 -11 -8.5 -20t-17.5 -12.5t-10 -1.5q-46 70 -140 70q-57 0 -88.5 -22t-31.5 -58t29.5 -52t103.5 -32q27 -6 40.5 -9.5t38.5 -11.5t38.5 -17t28.5 -22.5t22 -32.5t7 -43q0 -66 -50.5 -105.5t-137.5 -39.5z" />
    <glyph glyph-name="t" unicode="t" horiz-adv-x="346" 
d="M97 418h-44q-31 0 -31 26v6q0 26 31 26h44v83q0 31 29 31h7q28 0 28 -31v-83h127q31 0 31 -26v-6q0 -26 -31 -26h-127v-271q0 -54 16 -78.5t55 -24.5q46 0 74 35q1 1 6.5 -1.5t10.5 -11t5 -19.5q0 -22 -27 -40.5t-71 -18.5q-133 0 -133 152v278z" />
    <glyph glyph-name="u" unicode="u" horiz-adv-x="545" 
d="M414 74q-57 -86 -162 -86q-92 0 -140.5 56.5t-48.5 153.5v251q0 31 29 31h7q29 0 29 -31v-247q0 -72 35 -112.5t98 -40.5q51 0 90.5 27.5t61.5 73.5v299q0 31 29 31h7q29 0 29 -31v-446q0 -1 -3 -2.5t-8 -3t-11 -1.5q-42 0 -42 63v15z" />
    <glyph glyph-name="v" unicode="v" horiz-adv-x="473" 
d="M96 432l141 -373l142 373q11 28 21 38t26 10q10 0 18 -4t11.5 -8.5t2.5 -6.5l-175 -441q-6 -14 -15 -20t-32 -6q-24 0 -31 5t-13 19l-177 443q-1 2 2.5 6.5t11.5 8.5t18 4q18 0 28 -9.5t21 -38.5z" />
    <glyph glyph-name="w" unicode="w" horiz-adv-x="674" 
d="M187 -6q-26 0 -35.5 5.5t-12.5 19.5l-115 442q-1 2 4 6.5t14.5 8.5t19.5 4q30 0 39 -46l87 -374l102 321q5 15 15 21t34 6t34 -6t15 -21l101 -321l86 374q8 46 39 46q9 0 18 -4t14 -8.5t4 -6.5l-114 -442q-3 -14 -12.5 -19.5t-35.5 -5.5q-23 0 -31 5.5t-13 19.5l-105 326
l-108 -326q-5 -14 -13 -19.5t-31 -5.5z" />
    <glyph glyph-name="x" unicode="x" horiz-adv-x="465" 
d="M229 198l-122 -168q-25 -34 -49 -34q-12 0 -20.5 6.5t-11.5 13.5t-2 8l169 213l-166 215q-1 2 1.5 8.5t11 13t20.5 6.5q16 0 26 -7.5t23 -25.5l126 -170l123 169q24 34 48 34q12 0 20.5 -6.5t11.5 -13.5t2 -8l-168 -215l165 -213q1 -2 -1.5 -8.5t-11 -13t-20.5 -6.5
q-16 0 -26 7.5t-23 25.5q-8 11 -21 28.5t-40.5 54.5t-45.5 62z" />
    <glyph glyph-name="y" unicode="y" horiz-adv-x="472" 
d="M183 -197q-8 0 -16.5 3.5t-13.5 7.5t-4 6l80 204q-17 0 -25 5t-15 20l-174 412q-1 2 2.5 6.5t11.5 8.5t18 4q17 0 28 -9.5t21 -35.5l151 -373l131 371q16 47 48 47q8 0 16.5 -3.5t13 -7.5t3.5 -6l-230 -617q-16 -43 -46 -43z" />
    <glyph glyph-name="z" unicode="z" horiz-adv-x="473" 
d="M71 0q-31 0 -31 28v9q0 12 25 43l278 340h-270q-33 0 -33 25v6q0 25 33 25h326q31 0 31 -28v-5q0 -10 -25 -41l-283 -346h282q33 0 33 -25v-6q0 -25 -33 -25h-333z" />
    <glyph glyph-name="braceleft" unicode="{" horiz-adv-x="410" 
d="M364 -199q-36 0 -73.5 20.5t-71.5 59t-57 103.5t-26 145l-65 35q-28 16 -36.5 26t-8.5 36t8.5 36t36.5 26l66 35q3 80 26 145t57 103.5t71.5 59t73.5 20.5q26 0 26 -28q0 -7 -3.5 -15.5t-5.5 -9.5q-96 -20 -136 -95t-44 -214l-119 -63l118 -63q4 -139 44 -214t136 -95
q2 -1 5.5 -9.5t3.5 -15.5q0 -28 -26 -28z" />
    <glyph glyph-name="bar" unicode="|" horiz-adv-x="243" 
d="M118 -197q-29 0 -29 31v786q0 31 29 31h7q29 0 29 -31v-786q0 -31 -29 -31h-7z" />
    <glyph glyph-name="braceright" unicode="}" horiz-adv-x="410" 
d="M45 -199q-26 0 -26 28q0 7 3.5 15.5t5.5 9.5q96 20 136 95t44 214l118 63l-119 63q-4 139 -44 214t-136 95q-2 1 -5.5 9.5t-3.5 15.5q0 28 26 28q36 0 73.5 -20.5t71.5 -59t57 -103.5t26 -145l66 -35q28 -16 36.5 -26t8.5 -36t-8.5 -36t-36.5 -26l-65 -35
q-3 -80 -26 -145t-57 -103.5t-71.5 -59t-73.5 -20.5z" />
    <glyph glyph-name="asciitilde" unicode="~" horiz-adv-x="499" 
d="M131 168q-25 0 -25 26q0 34 20 62t49 28q25 0 66 -21.5t82 -58.5q23 73 46 73q25 0 25 -26q0 -34 -20 -62t-49 -28q-25 0 -66 21.5t-82 58.5q-23 -73 -46 -73z" />
    <glyph glyph-name="nbspace" unicode="&#xa0;" horiz-adv-x="170" 
 />
    <glyph glyph-name="exclamdown" unicode="&#xa1;" horiz-adv-x="247" 
d="M119 554q-45 0 -45 45v10q0 44 45 44h10q44 0 44 -44v-10q0 -45 -44 -45h-10zM111 -4q-32 0 -29 39l22 410q2 24 16 24h8q13 0 15 -24l22 -410q3 -39 -29 -39h-25z" />
    <glyph glyph-name="cent" unicode="&#xa2;" horiz-adv-x="539" 
d="M263 30q-101 12 -158.5 78t-57.5 173q0 101 60.5 171t155.5 83v91q0 31 27 31h5q27 0 27 -31v-90q80 -5 129 -43.5t49 -69.5q0 -13 -8.5 -23.5t-17.5 -14t-10 -1.5q-47 86 -145 94v-392q110 6 152 104q1 2 10.5 -0.5t18.5 -11.5t9 -22q0 -38 -52 -80.5t-135 -47.5v-95
q0 -31 -27 -31h-5q-27 0 -27 31v97zM266 477q-70 -8 -111.5 -59t-41.5 -136q0 -80 41.5 -131t111.5 -62v388z" />
    <glyph glyph-name="sterling" unicode="&#xa3;" horiz-adv-x="564" 
d="M207 263l-37 -201h320q31 0 31 -29v-5q0 -28 -31 -28h-443q-31 0 -31 28v6q0 28 31 28h56l37 201h-79q-31 0 -31 26v7q0 27 31 27h90l28 153q33 183 191 183q77 0 120.5 -41.5t43.5 -86.5q0 -17 -11.5 -27.5t-22 -10t-12.5 1.5q-22 106 -118 106q-56 0 -84.5 -30.5
t-40.5 -98.5l-27 -149h166q31 0 31 -27v-7q0 -26 -31 -26h-177z" />
    <glyph glyph-name="currency" unicode="&#xa4;" horiz-adv-x="626" 
d="M130 376h-63q-31 0 -31 26v6q0 26 31 26h70q20 104 85.5 164.5t161.5 60.5q86 0 143 -41.5t57 -81.5q0 -14 -9.5 -23.5t-19 -12.5t-10.5 -1q-55 103 -165 103q-66 0 -113 -45t-64 -123h216q31 0 31 -26v-6q0 -26 -31 -26h-224q-1 -9 -1 -28v-48q0 -16 1 -24h224
q31 0 31 -26v-6q0 -26 -31 -26h-216q18 -79 66 -125.5t117 -46.5q111 0 162 112q1 3 11 0t19.5 -13t9.5 -25q0 -42 -58 -87t-141 -45q-102 0 -168 60.5t-85 169.5h-69q-31 0 -31 26v6q0 26 31 26h63q-1 8 -1 26v45q0 19 1 29z" />
    <glyph glyph-name="yen" unicode="&#xa5;" horiz-adv-x="569" 
d="M253 255h-161q-31 0 -31 26v6q0 26 31 26h139l-189 309q-2 3 4 9.5t17.5 13t24.5 6.5q20 0 33 -23l163 -292l167 291q16 24 34 24q11 0 21.5 -6.5t16 -13t3.5 -9.5l-189 -309h139q31 0 31 -26v-6q0 -26 -31 -26h-161v-80h161q31 0 31 -26v-6q0 -26 -31 -26h-161v-90
q0 -31 -28 -31h-7q-27 0 -27 31v90h-161q-31 0 -31 26v6q0 26 31 26h161v80z" />
    <glyph glyph-name="section" unicode="&#xa7;" horiz-adv-x="520" 
d="M149 375q-91 37 -91 126q0 69 59.5 113.5t146.5 44.5q93 0 146 -37.5t53 -73.5q0 -12 -8.5 -22t-17.5 -14.5t-10 -2.5q-58 90 -163 90q-59 0 -100 -24.5t-41 -65.5q0 -42 37.5 -64.5t121.5 -41.5q31 -7 48.5 -11.5t45 -14t43 -20t32 -25.5t24 -36t7.5 -47q0 -47 -29 -80
t-79 -48q94 -35 94 -128q0 -69 -59 -111t-155 -42q-106 0 -165 41t-59 81q0 13 9 23t18 14.5t10 2.5q57 -102 186 -102q70 0 110 23.5t40 64.5q0 19 -7.5 33.5t-17.5 24t-33 18t-40 13t-53 12.5q-9 2 -13 3q-37 9 -58.5 14.5t-52 18.5t-47.5 28t-29.5 39.5t-12.5 55.5
q0 94 110 127zM301 142q49 4 83.5 34t34.5 66q0 24 -11.5 41t-38.5 29t-49 18t-66 16q-5 1 -17 3.5t-18 4.5q-50 -6 -83.5 -35.5t-33.5 -63.5q0 -20 9.5 -35.5t21.5 -25.5t37.5 -19t43.5 -13.5t53 -12.5q5 -1 16.5 -3.5t17.5 -3.5z" />
    <glyph glyph-name="dieresis" unicode="&#xa8;" 
d="M335 548q-23 0 -36.5 13t-13.5 36t13 36t35 13q23 0 36.5 -13t13.5 -36t-13.5 -36t-34.5 -13zM167 548q-23 0 -36.5 13t-13.5 36t13.5 36t34.5 13q23 0 36.5 -13t13.5 -36t-13 -36t-35 -13z" />
    <glyph glyph-name="copyright" unicode="&#xa9;" horiz-adv-x="757" 
d="M378 -12q-144 0 -236 94t-92 240q0 145 94 241t235 96q144 0 236 -94t92 -240q0 -145 -94 -241t-235 -96zM380 36q121 0 197 80t76 207q0 124 -78.5 206t-197.5 82q-121 0 -197 -80t-76 -207q0 -124 78.5 -206t197.5 -82zM387 144q-77 0 -127 50t-50 128q0 76 51 127.5
t125 51.5q72 0 114 -42q19 -19 19 -38q0 -10 -8 -18.5t-16.5 -11.5t-9.5 -1q-30 55 -100 55q-46 0 -80 -35.5t-34 -86.5q0 -53 34 -88t84 -35q73 0 100 60q1 2 9.5 -0.5t17 -11t8.5 -19.5q0 -19 -24 -44q-39 -41 -113 -41z" />
    <glyph glyph-name="ordfeminine" unicode="&#xaa;" horiz-adv-x="427" 
d="M180 258q-68 0 -106 28t-38 77q0 61 58 93.5t213 41.5q0 107 -106 107q-74 0 -116 -68q0 -2 -8.5 0.5t-16.5 10.5t-8 19q0 28 41.5 60t112.5 32q80 0 121 -42t41 -117v-230q0 -6 -21 -6q-39 0 -39 56q-45 -62 -128 -62zM200 -6q-40 0 -40 40v8q0 41 40 41h8q41 0 41 -41
v-8q0 -40 -41 -40h-8zM188 308q49 0 84.5 28.5t35.5 64.5v54q-86 -6 -134 -19.5t-62.5 -29.5t-14.5 -40q0 -27 24 -42.5t67 -15.5z" />
    <glyph glyph-name="guillemotleft" unicode="&#xab;" horiz-adv-x="507" 
d="M432 78q-26 0 -73.5 38.5t-82.5 78.5t-35 48t35 47.5t82.5 78.5t73.5 39h1q10 0 17 -7t7 -16v-2q0 -31 -156 -141q156 -107 156 -139v-3q0 -9 -7 -15.5t-17 -6.5h-1zM218 94q-34 0 -103.5 67.5t-69.5 81.5q0 7 32 43t74.5 70.5t66.5 34.5h1q9 0 15 -6.5t6 -14.5v-1
q0 -29 -138 -127q138 -96 138 -126v-1q0 -8 -6 -14.5t-15 -6.5h-1z" />
    <glyph glyph-name="logicalnot" unicode="&#xac;" horiz-adv-x="712" 
d="M592 258h-229q-31 0 -31 28v4q0 29 31 29h273q15 0 20.5 -7t5.5 -23v-13q0 -126 -81 -207t-208 -81q-145 0 -234 93t-89 241q0 149 90.5 243t233.5 94q104 0 172.5 -45.5t68.5 -82.5q0 -13 -9.5 -23.5t-19.5 -15t-11 -2.5q-30 52 -86 81t-117 29q-111 0 -181.5 -77
t-70.5 -199q0 -121 70.5 -199t180.5 -78q92 0 154.5 56t66.5 155z" />
    <glyph glyph-name="registered" unicode="&#xae;" horiz-adv-x="757" 
d="M312 333h80q35 0 54 15t19 42q0 57 -76 57h-77v-114zM378 -12q-144 0 -236 94t-92 240q0 145 94 241t235 96q144 0 236 -94t92 -240q0 -145 -94 -241t-235 -96zM380 36q121 0 197 80t76 207q0 124 -78.5 206t-197.5 82q-121 0 -197 -80t-76 -207q0 -124 78.5 -206
t197.5 -82zM421 288l97 -112q2 -2 -2 -8t-12.5 -11.5t-18.5 -5.5q-24 0 -41 22l-87 110h-44v-104q0 -28 -26 -28h-8q-26 0 -26 32v281q0 16 9 25t23 9h106q134 0 134 -107q0 -45 -27 -71.5t-77 -31.5z" />
    <glyph glyph-name="macron" unicode="&#xaf;" 
d="M146 568q-39 0 -39 29v5q0 28 39 28h208q39 0 39 -28v-5q0 -29 -39 -29h-208z" />
    <glyph glyph-name="degree" unicode="&#xb0;" horiz-adv-x="408" 
d="M202 346q-65 0 -108 43.5t-43 109.5v9q0 65 45 109.5t110 44.5t108 -43.5t43 -109.5v-9q0 -65 -45 -109.5t-110 -44.5zM205 399q41 0 69 28.5t28 71.5v9q0 42 -29 71.5t-70 29.5t-69 -28.5t-28 -71.5v-9q0 -42 29 -71.5t70 -29.5z" />
    <glyph glyph-name="plusminus" unicode="&#xb1;" horiz-adv-x="380" 
d="M233 58h95q31 0 31 -27v-5q0 -26 -31 -26h-262q-31 0 -31 26v5q0 27 31 27h101v486q-25 -40 -76 -40q-32 0 -52.5 16t-20.5 41q0 10 5 19.5t10 14t6 3.5q22 -25 57 -25q32 0 54 22.5t24 55.5h29q30 0 30 -31v-562z" />
    <glyph glyph-name="acute" unicode="&#xb4;" 
d="M179 551q-2 3 15.5 24.5t49 52t60.5 51.5q24 18 46 18q12 0 21 -7.5t9 -19.5q0 -25 -37 -50q-31 -21 -70 -39t-65 -25.5t-29 -4.5z" />
    <glyph glyph-name="mu" unicode="&#xb5;" horiz-adv-x="569" 
d="M438 205v114q-49 112 -169 112q-76 0 -122 -53.5t-46 -139.5q0 -84 47 -138.5t119 -54.5q68 0 119.5 46.5t51.5 113.5zM438 404v13q0 63 42 63q6 0 11 -1.5t8 -3t3 -2.5v-446q0 -31 -29 -31h-7q-29 0 -29 31v51q-68 -90 -177 -90q-96 0 -160.5 69t-64.5 180
q0 112 64.5 181.5t164.5 69.5q60 0 106 -24t68 -60z" />
    <glyph glyph-name="mu" unicode="&#x3bc;" horiz-adv-x="569" 
d="M438 205v114q-49 112 -169 112q-76 0 -122 -53.5t-46 -139.5q0 -84 47 -138.5t119 -54.5q68 0 119.5 46.5t51.5 113.5zM438 404v13q0 63 42 63q6 0 11 -1.5t8 -3t3 -2.5v-446q0 -31 -29 -31h-7q-29 0 -29 31v51q-68 -90 -177 -90q-96 0 -160.5 69t-64.5 180
q0 112 64.5 181.5t164.5 69.5q60 0 106 -24t68 -60z" />
    <glyph glyph-name="paragraph" unicode="&#xb6;" horiz-adv-x="618" 
d="M502 -4q-29 0 -29 31v593q0 31 29 31h9q30 0 30 -31v-593q0 -31 -30 -31h-9zM377 -4q-30 0 -30 31v263h-79q-115 0 -175 44.5t-60 131.5q0 89 58.5 135.5t171.5 46.5h114q16 0 27 -11t11 -27v-583q0 -31 -29 -31h-9z" />
    <glyph glyph-name="periodcentered" unicode="&#xb7;" horiz-adv-x="221" 
d="M105 193q-44 0 -44 44v10q0 45 44 45h10q45 0 45 -45v-10q0 -44 -45 -44h-10z" />
    <glyph glyph-name="cedilla" unicode="&#xb8;" 
d="M192 -225q-7 -8 -23 -3t-10 19l60 125q7 14 10 19t10.5 10t19.5 5h5q14 0 24.5 -8t10.5 -21v-4q0 -10 -26 -41z" />
    <glyph glyph-name="ordmasculine" unicode="&#xba;" horiz-adv-x="479" 
d="M240 257q-84 0 -140 57.5t-56 142.5q0 84 57 143t139 59q83 0 139 -57.5t56 -142.5t-57 -143.5t-138 -58.5zM234 -6q-40 0 -40 40v8q0 41 40 41h8q41 0 41 -41v-8q0 -40 -41 -40h-8zM240 311q58 0 96.5 42t38.5 105q0 62 -39 104.5t-96 42.5q-58 0 -97 -42t-39 -105
q0 -62 39.5 -104.5t96.5 -42.5z" />
    <glyph glyph-name="guillemotright" unicode="&#xbb;" horiz-adv-x="507" 
d="M288 95q-9 0 -15 6.5t-6 14.5v1q0 29 138 127q-138 96 -138 126v1q0 8 6 14.5t15 6.5h1q34 0 103.5 -67.5t69.5 -81.5q0 -7 -32 -43t-74.5 -70.5t-66.5 -34.5h-1zM74 78q-10 0 -17 7t-7 16v2q0 31 156 141q-156 107 -156 139v3q0 9 7 15.5t17 6.5h1q26 0 73.5 -38.5
t82.5 -78.5t35 -48t-35 -47.5t-82.5 -78.5t-73.5 -39h-1z" />
    <glyph glyph-name="questiondown" unicode="&#xbf;" horiz-adv-x="463" 
d="M250 554q-45 0 -45 45v10q0 44 45 44h10q44 0 44 -44v-10q0 -45 -44 -45h-10zM224 -12q-88 0 -141 46.5t-53 117.5q0 38 15 67.5t37 46.5t48 36.5t48 36.5t37 46.5t15 67.5q0 17 28 17q14 0 21.5 -5t6.5 -16q-2 -55 -22 -94.5t-47.5 -60.5t-54.5 -38.5t-46 -41.5t-19 -56
q0 -51 34 -80.5t95 -29.5q71 0 107 39t45 97q1 3 13 0.5t24 -13t12 -27.5q0 -21 -12 -46t-34.5 -50.5t-64 -42.5t-92.5 -17z" />
    <glyph glyph-name="Agrave" unicode="&#xc0;" horiz-adv-x="609" 
d="M186 271h233l-116 305zM442 211h-279l-70 -184q-12 -31 -39 -31q-9 0 -19 4t-15 8.5t-4 7.5l237 612q10 25 51 25t51 -25l237 -612q1 -3 -4.5 -7.5t-15 -8.5t-19.5 -4q-29 0 -41 31zM182 790q-37 25 -37 50q0 12 9 19.5t21 7.5q22 0 46 -18q29 -21 60.5 -51.5t49 -52
t15.5 -24.5q-3 -3 -29 4.5t-65 25.5t-70 39z" />
    <glyph glyph-name="Aacute" unicode="&#xc1;" horiz-adv-x="609" 
d="M186 271h233l-116 305zM442 211h-279l-70 -184q-12 -31 -39 -31q-9 0 -19 4t-15 8.5t-4 7.5l237 612q10 25 51 25t51 -25l237 -612q1 -3 -4.5 -7.5t-15 -8.5t-19.5 -4q-29 0 -41 31zM254 721q-2 3 15.5 24.5t49 52t60.5 51.5q24 18 46 18q12 0 21 -7.5t9 -19.5
q0 -25 -37 -50q-31 -21 -70 -39t-65 -25.5t-29 -4.5z" />
    <glyph glyph-name="Acircumflex" unicode="&#xc2;" horiz-adv-x="609" 
d="M186 271h233l-116 305zM442 211h-279l-70 -184q-12 -31 -39 -31q-9 0 -19 4t-15 8.5t-4 7.5l237 612q10 25 51 25t51 -25l237 -612q1 -3 -4.5 -7.5t-15 -8.5t-19.5 -4q-29 0 -41 31zM304 831q-48 -65 -70 -88.5t-38 -23.5q-22 0 -22 23q0 21 32 58t63.5 63t35.5 26
t35 -26t63 -63t32 -58q0 -23 -21 -23q-16 0 -39.5 24.5t-70.5 87.5z" />
    <glyph glyph-name="Atilde" unicode="&#xc3;" horiz-adv-x="609" 
d="M186 271h233l-116 305zM442 211h-279l-70 -184q-12 -31 -39 -31q-9 0 -19 4t-15 8.5t-4 7.5l237 612q10 25 51 25t51 -25l237 -612q1 -3 -4.5 -7.5t-15 -8.5t-19.5 -4q-29 0 -41 31zM192 725q-25 0 -25 26q0 34 20 62t49 28q25 0 66 -21.5t82 -58.5q23 73 46 73
q25 0 25 -26q0 -34 -20 -62t-49 -28q-25 0 -66 21.5t-82 58.5q-23 -73 -46 -73z" />
    <glyph glyph-name="Adieresis" unicode="&#xc4;" horiz-adv-x="609" 
d="M186 271h233l-116 305zM442 211h-279l-70 -184q-12 -31 -39 -31q-9 0 -19 4t-15 8.5t-4 7.5l237 612q10 25 51 25t51 -25l237 -612q1 -3 -4.5 -7.5t-15 -8.5t-19.5 -4q-29 0 -41 31zM390 718q-23 0 -36.5 13t-13.5 36t13 36t35 13q23 0 36.5 -13t13.5 -36t-13.5 -36
t-34.5 -13zM222 718q-23 0 -36.5 13t-13.5 36t13.5 36t34.5 13q23 0 36.5 -13t13.5 -36t-13 -36t-35 -13z" />
    <glyph glyph-name="Aring" unicode="&#xc5;" horiz-adv-x="609" 
d="M303 647q29 0 48 20.5t19 51.5t-19.5 52t-47.5 21t-47.5 -21t-19.5 -52q0 -30 19.5 -51t47.5 -21zM442 211h-279l-70 -184q-12 -31 -39 -31q-9 0 -19 4t-15 8.5t-4 7.5l233 601q-62 29 -62 102q0 50 33.5 83.5t83.5 33.5q51 0 83.5 -33t32.5 -84q0 -71 -62 -102l234 -601
q1 -3 -4.5 -7.5t-15 -8.5t-19.5 -4q-29 0 -41 31zM186 271h233l-29 77q-29 76 -58 153l-29 77z" />
    <glyph glyph-name="AE" unicode="&#xc6;" horiz-adv-x="844" 
d="M186 271h234l-117 305zM442 211h-279l-70 -184q-13 -31 -39 -31q-9 0 -19 4t-15 8.5t-4 7.5l233 601q12 30 43 30h478q31 0 31 -28v-6q0 -28 -31 -28h-401l86 -222h244q31 0 31 -28v-6q0 -28 -31 -28h-219l92 -239h204q31 0 31 -27v-6q0 -29 -31 -29h-214q-24 0 -36 8.5
t-20 29.5z" />
    <glyph glyph-name="Ccedilla" unicode="&#xc7;" horiz-adv-x="660" 
d="M371 -12q-142 0 -231.5 93t-89.5 241q0 149 90.5 243t233.5 94q104 0 172.5 -45.5t68.5 -82.5q0 -16 -9.5 -26.5t-19.5 -13.5t-11 -1q-30 52 -86 81t-117 29q-111 0 -181.5 -77t-70.5 -199q0 -121 72 -199t182 -78q72 0 129.5 34.5t79.5 92.5q1 3 11.5 0t21.5 -13.5
t11 -26.5q0 -41 -72 -93.5t-184 -52.5zM297 -225q-7 -8 -23 -3t-10 19l60 125q7 14 10 19t10.5 10t19.5 5h5q14 0 24.5 -8t10.5 -21v-4q0 -10 -26 -41z" />
    <glyph glyph-name="Egrave" unicode="&#xc8;" horiz-adv-x="576" 
d="M115 0q-16 0 -27 11t-11 27v571q0 16 11 27t27 11h387q31 0 31 -28v-6q0 -28 -31 -28h-357v-223h286q31 0 31 -28v-4q0 -28 -31 -28h-286v-240h363q31 0 31 -27v-6q0 -29 -31 -29h-393zM212 790q-37 25 -37 50q0 12 9 19.5t21 7.5q22 0 46 -18q29 -21 60.5 -51.5t49 -52
t15.5 -24.5q-3 -3 -29 4.5t-65 25.5t-70 39z" />
    <glyph glyph-name="Eacute" unicode="&#xc9;" horiz-adv-x="576" 
d="M115 0q-16 0 -27 11t-11 27v571q0 16 11 27t27 11h387q31 0 31 -28v-6q0 -28 -31 -28h-357v-223h286q31 0 31 -28v-4q0 -28 -31 -28h-286v-240h363q31 0 31 -27v-6q0 -29 -31 -29h-393zM227 721q-2 3 15.5 24.5t49 52t60.5 51.5q24 18 46 18q12 0 21 -7.5t9 -19.5
q0 -25 -37 -50q-31 -21 -70 -39t-65 -25.5t-29 -4.5z" />
    <glyph glyph-name="Ecircumflex" unicode="&#xca;" horiz-adv-x="576" 
d="M115 0q-16 0 -27 11t-11 27v571q0 16 11 27t27 11h387q31 0 31 -28v-6q0 -28 -31 -28h-357v-223h286q31 0 31 -28v-4q0 -28 -31 -28h-286v-240h363q31 0 31 -27v-6q0 -29 -31 -29h-393zM304 831q-48 -65 -70 -88.5t-38 -23.5q-22 0 -22 23q0 21 32 58t63.5 63t35.5 26
t35 -26t63 -63t32 -58q0 -23 -21 -23q-16 0 -39.5 24.5t-70.5 87.5z" />
    <glyph glyph-name="Edieresis" unicode="&#xcb;" horiz-adv-x="576" 
d="M115 0q-16 0 -27 11t-11 27v571q0 16 11 27t27 11h387q31 0 31 -28v-6q0 -28 -31 -28h-357v-223h286q31 0 31 -28v-4q0 -28 -31 -28h-286v-240h363q31 0 31 -27v-6q0 -29 -31 -29h-393zM390 718q-23 0 -36.5 13t-13.5 36t13 36t35 13q23 0 36.5 -13t13.5 -36t-13.5 -36
t-34.5 -13zM222 718q-23 0 -36.5 13t-13.5 36t13.5 36t34.5 13q23 0 36.5 -13t13.5 -36t-13 -36t-35 -13z" />
    <glyph glyph-name="Igrave" unicode="&#xcc;" horiz-adv-x="242" 
d="M116 -4q-29 0 -29 31v593q0 31 29 31h9q30 0 30 -31v-593q0 -31 -30 -31h-9zM124 790q-37 25 -37 50q0 12 9 19.5t21 7.5q22 0 46 -18q29 -21 60.5 -51.5t49 -52t15.5 -24.5q-3 -3 -29 4.5t-65 25.5t-70 39z" />
    <glyph glyph-name="Iacute" unicode="&#xcd;" horiz-adv-x="242" 
d="M116 -4q-29 0 -29 31v593q0 31 29 31h9q30 0 30 -31v-593q0 -31 -30 -31h-9zM91 721q-2 3 15.5 24.5t49 52t60.5 51.5q24 18 46 18q12 0 21 -7.5t9 -19.5q0 -25 -37 -50q-31 -21 -70 -39t-65 -25.5t-29 -4.5z" />
    <glyph glyph-name="Icircumflex" unicode="&#xce;" horiz-adv-x="242" 
d="M116 -4q-29 0 -29 31v593q0 31 29 31h9q30 0 30 -31v-593q0 -31 -30 -31h-9zM217 831q-48 -65 -70 -88.5t-38 -23.5q-22 0 -22 23q0 21 32 58t63.5 63t35.5 26t35 -26t63 -63t32 -58q0 -23 -21 -23q-16 0 -39.5 24.5t-70.5 87.5z" />
    <glyph glyph-name="Idieresis" unicode="&#xcf;" horiz-adv-x="242" 
d="M116 -4q-29 0 -29 31v593q0 31 29 31h9q30 0 30 -31v-593q0 -31 -30 -31h-9zM305 718q-23 0 -36.5 13t-13.5 36t13 36t35 13q23 0 36.5 -13t13.5 -36t-13.5 -36t-34.5 -13zM137 718q-23 0 -36.5 13t-13.5 36t13.5 36t34.5 13q23 0 36.5 -13t13.5 -36t-13 -36t-35 -13z
" />
    <glyph glyph-name="Eth" unicode="&#xd0;" horiz-adv-x="717" 
d="M180 354h214q31 0 31 -27v-6q0 -27 -31 -27h-214v-232h132q138 0 212 68t74 193q0 123 -75 192.5t-210 69.5h-133v-231zM112 294h-65q-31 0 -31 27v6q0 27 31 27h65v255q0 16 11 27t27 11h158q166 0 262.5 -86t96.5 -236q0 -151 -98 -238t-266 -87h-153q-16 0 -27 11
t-11 27v256z" />
    <glyph glyph-name="Ntilde" unicode="&#xd1;" horiz-adv-x="675" 
d="M104 -4q-27 0 -27 31v578q0 20 10 33t27 13h17q17 0 27.5 -8t24.5 -28l351 -509v514q0 31 28 31h9q27 0 27 -31v-578q0 -21 -9.5 -33.5t-25.5 -12.5h-5q-17 0 -25 5.5t-19 20.5l-373 539v-534q0 -31 -28 -31h-9zM219 725q-25 0 -25 26q0 34 20 62t49 28q25 0 66 -21.5
t82 -58.5q23 73 46 73q25 0 25 -26q0 -34 -20 -62t-49 -28q-25 0 -66 21.5t-82 58.5q-23 -73 -46 -73z" />
    <glyph glyph-name="Ograve" unicode="&#xd2;" horiz-adv-x="744" 
d="M371 -12q-143 0 -232 93t-89 241t90.5 242.5t232.5 94.5t231.5 -93t89.5 -242q0 -148 -90 -242t-233 -94zM373 47q110 0 180.5 77t70.5 198t-71.5 199.5t-181.5 78.5t-180.5 -77.5t-70.5 -198.5t71.5 -199t181.5 -78zM259 790q-37 25 -37 50q0 12 9 19.5t21 7.5
q22 0 46 -18q29 -21 60.5 -51.5t49 -52t15.5 -24.5q-3 -3 -29 4.5t-65 25.5t-70 39z" />
    <glyph glyph-name="Oacute" unicode="&#xd3;" horiz-adv-x="744" 
d="M371 -12q-143 0 -232 93t-89 241t90.5 242.5t232.5 94.5t231.5 -93t89.5 -242q0 -148 -90 -242t-233 -94zM373 47q110 0 180.5 77t70.5 198t-71.5 199.5t-181.5 78.5t-180.5 -77.5t-70.5 -198.5t71.5 -199t181.5 -78zM321 721q-2 3 15.5 24.5t49 52t60.5 51.5
q24 18 46 18q12 0 21 -7.5t9 -19.5q0 -25 -37 -50q-31 -21 -70 -39t-65 -25.5t-29 -4.5z" />
    <glyph glyph-name="Ocircumflex" unicode="&#xd4;" horiz-adv-x="744" 
d="M371 -12q-143 0 -232 93t-89 241t90.5 242.5t232.5 94.5t231.5 -93t89.5 -242q0 -148 -90 -242t-233 -94zM373 47q110 0 180.5 77t70.5 198t-71.5 199.5t-181.5 78.5t-180.5 -77.5t-70.5 -198.5t71.5 -199t181.5 -78zM371 831q-48 -65 -70 -88.5t-38 -23.5q-22 0 -22 23
q0 21 32 58t63.5 63t35.5 26t35 -26t63 -63t32 -58q0 -23 -21 -23q-16 0 -39.5 24.5t-70.5 87.5z" />
    <glyph glyph-name="Otilde" unicode="&#xd5;" horiz-adv-x="744" 
d="M371 -12q-143 0 -232 93t-89 241t90.5 242.5t232.5 94.5t231.5 -93t89.5 -242q0 -148 -90 -242t-233 -94zM373 47q110 0 180.5 77t70.5 198t-71.5 199.5t-181.5 78.5t-180.5 -77.5t-70.5 -198.5t71.5 -199t181.5 -78zM254 725q-25 0 -25 26q0 34 20 62t49 28
q25 0 66 -21.5t82 -58.5q23 73 46 73q25 0 25 -26q0 -34 -20 -62t-49 -28q-25 0 -66 21.5t-82 58.5q-23 -73 -46 -73z" />
    <glyph glyph-name="Odieresis" unicode="&#xd6;" horiz-adv-x="744" 
d="M371 -12q-143 0 -232 93t-89 241t90.5 242.5t232.5 94.5t231.5 -93t89.5 -242q0 -148 -90 -242t-233 -94zM373 47q110 0 180.5 77t70.5 198t-71.5 199.5t-181.5 78.5t-180.5 -77.5t-70.5 -198.5t71.5 -199t181.5 -78zM457 718q-23 0 -36.5 13t-13.5 36t13 36t35 13
q23 0 36.5 -13t13.5 -36t-13.5 -36t-34.5 -13zM289 718q-23 0 -36.5 13t-13.5 36t13.5 36t34.5 13q23 0 36.5 -13t13.5 -36t-13 -36t-35 -13z" />
    <glyph glyph-name="multiply" unicode="&#xd7;" horiz-adv-x="539" 
d="M107 90l-4 4q-20 18 2 42l126 130l-126 128q-22 24 -2 42l4 4q19 21 43 -4l122 -128l122 128q24 25 43 4l4 -4q20 -18 -2 -42l-126 -128l126 -130q22 -24 2 -42l-4 -4q-19 -21 -43 4l-122 129l-122 -129q-24 -25 -43 -4z" />
    <glyph glyph-name="Oslash" unicode="&#xd8;" horiz-adv-x="744" 
d="M171 149l356 396q-65 52 -156 52q-114 0 -183.5 -77t-69.5 -196q0 -102 53 -175zM569 502q-356 -397 -357 -397q68 -55 161 -55q114 0 183.5 76.5t69.5 195.5q0 106 -57 180zM617 549q77 -93 77 -225q0 -144 -90.5 -240t-232.5 -96q-118 0 -203 68l-22 -24
q-23 -25 -45 -50l-22 -24q-2 -2 -10 2t-15.5 13.5t-7.5 20.5q0 22 24 49l53 59q-73 92 -73 220q0 144 90.5 240.5t232.5 96.5q116 0 199 -66l80 90q2 2 10 -2t15.5 -13.5t7.5 -20.5q0 -22 -24 -49z" />
    <glyph glyph-name="Ugrave" unicode="&#xd9;" horiz-adv-x="639" 
d="M318 -12q-122 0 -186.5 68.5t-64.5 198.5v365q0 31 29 31h9q30 0 30 -31v-360q0 -211 185 -211t185 212v359q0 31 28 31h12q27 0 27 -31v-362q0 -131 -65.5 -200.5t-188.5 -69.5zM215 780q-37 25 -37 50q0 12 9 19.5t21 7.5q22 0 46 -18q29 -21 60.5 -51.5t49 -52
t15.5 -24.5q-3 -3 -29 4.5t-65 25.5t-70 39z" />
    <glyph glyph-name="Uacute" unicode="&#xda;" horiz-adv-x="639" 
d="M318 -12q-122 0 -186.5 68.5t-64.5 198.5v365q0 31 29 31h9q30 0 30 -31v-360q0 -211 185 -211t185 212v359q0 31 28 31h12q27 0 27 -31v-362q0 -131 -65.5 -200.5t-188.5 -69.5zM267 711q-2 3 15.5 24.5t49 52t60.5 51.5q24 18 46 18q12 0 21 -7.5t9 -19.5
q0 -25 -37 -50q-31 -21 -70 -39t-65 -25.5t-29 -4.5z" />
    <glyph glyph-name="Ucircumflex" unicode="&#xdb;" horiz-adv-x="639" 
d="M318 -12q-122 0 -186.5 68.5t-64.5 198.5v365q0 31 29 31h9q30 0 30 -31v-360q0 -211 185 -211t185 212v359q0 31 28 31h12q27 0 27 -31v-362q0 -131 -65.5 -200.5t-188.5 -69.5zM317 831q-48 -65 -70 -88.5t-38 -23.5q-22 0 -22 23q0 21 32 58t63.5 63t35.5 26t35 -26
t63 -63t32 -58q0 -23 -21 -23q-16 0 -39.5 24.5t-70.5 87.5z" />
    <glyph glyph-name="Udieresis" unicode="&#xdc;" horiz-adv-x="639" 
d="M318 -12q-122 0 -186.5 68.5t-64.5 198.5v365q0 31 29 31h9q30 0 30 -31v-360q0 -211 185 -211t185 212v359q0 31 28 31h12q27 0 27 -31v-362q0 -131 -65.5 -200.5t-188.5 -69.5zM403 718q-23 0 -36.5 13t-13.5 36t13 36t35 13q23 0 36.5 -13t13.5 -36t-13.5 -36
t-34.5 -13zM235 718q-23 0 -36.5 13t-13.5 36t13.5 36t34.5 13q23 0 36.5 -13t13.5 -36t-13 -36t-35 -13z" />
    <glyph glyph-name="Yacute" unicode="&#xdd;" horiz-adv-x="549" 
d="M308 269v-242q0 -31 -30 -31h-9q-29 0 -29 31v242l-230 353q-2 3 2 9.5t14.5 13t24.5 6.5q21 0 34 -23l190 -297l189 296q16 24 34 24q13 0 23 -6.5t14.5 -13t2.5 -9.5zM215 711q-2 3 15.5 24.5t49 52t60.5 51.5q24 18 46 18q12 0 21 -7.5t9 -19.5q0 -25 -37 -50
q-31 -21 -70 -39t-65 -25.5t-29 -4.5z" />
    <glyph glyph-name="Thorn" unicode="&#xde;" horiz-adv-x="558" 
d="M145 524h136q113 0 175.5 -51t62.5 -145q0 -97 -62.5 -148t-183.5 -51h-128v-102q0 -31 -30 -31h-9q-29 0 -29 31v593q0 31 29 31h9q30 0 30 -31v-96zM145 189h134q170 0 170 137t-167 137h-137v-274z" />
    <glyph glyph-name="germandbls" unicode="&#xdf;" horiz-adv-x="526" 
d="M297 380q108 -26 153 -79.5t45 -133.5q0 -74 -53.5 -126.5t-129.5 -52.5q-62 0 -97.5 21.5t-35.5 46.5q0 11 6 20.5t12.5 14t7.5 3.5q44 -49 109 -49q47 0 81.5 36t34.5 86q0 57 -33 98t-120 62q-31 8 -43.5 20.5t-12.5 33.5q0 9 4.5 19t8.5 16l4 6q79 -1 118 23.5
t39 80.5q0 48 -33.5 76t-91.5 28q-138 0 -138 -163v0v0v0v0v0v-1v0v0v-1v0v0v-1v0v-1v0v-1v0v-1v0v-1v-1v0v-1v-1v-1v-1v-1v-1v-1v-1v-1v-1v-1v-1v-1v-1v-1v-1v-1v-1v-1v-1v-1v-1v-1v-1v-1v-1v-1v-1v-1v-1v-1v-1v-1v-1v-1v-1v-1v-1v-1v-1v-1v-1v-1v-1v-1v-1v-1v-1v-1v-1v-1
v-1v-1v-1v-1v-1v-1v-1v-1v-1v-1v-1v-1v-1v-1v-1v-1v-1v-1v-1v-1v-1v-2v-1v-1v-1v-1v-1v-1v-1v-1v-1v-1v-2v-1v-1v-1v-1v-1v-1v-1v-2v-1v-1v-1v-1v-1v-2v-1v-1v-1v-1v-2v-1v-1v-1v-1v-2v-1v-1v-1v-2v-1v-1v-1v-2v-1v-1v-1v-2v-1v-1v-2v-1v-1v-1v-2v-1v-1v-2v-1v-1v-2v-1v-1
v-2v-1v-1v-2v-1v-1v-2v-1v-2v-1v-1v-2v-1v-1v-2v-1v-2v-1v-1v-2v-1v-2v-1v-2v-1v-1v-2v-1v-2v-1v-2v-1v-2v-1v-1v-2v-1v-2v-1v-2v-1v-2v-1v-2v-1v-2v-1v-2v-1v-2v-1v-2v-1v-2v-1v-2v-1v-2v-2v-1v-2v-1v-2v-1v-2v-1v-2v-2v-1v-2v-1v-2v-2v-1v-2v-1v-2v-2v-1v-2v-1v-2v-2v-1
v-2v-1v-2v-2v-1v-2v-2v-1v-2v-2v-1v-2v-2v-1v-2v-2v-1v-2v-2v-1v-2v-2v-1v-2v-2v-2v-1v-2v-2v-1v-2v-2v-2v-1v-2v-2v-1v-2v-2v-2v-1v-2v-2v-2v-2v-1v-2v-2v-2v-1v-2v-2v-2v-2v-1v-2v-2v-2v-2v-1v-2v-2v-2v-2v-1v-2v-2v-2v-2v-2v-1v-2v-2v-2v-2v-2v-2v-1v-2v-2v-2v-2v-2v-2
v-1v-10q0 -31 -29 -31h-7q-29 0 -29 31v0v0v0v0v1v0v0v0v1v0v1v0v1v0v1v0v1v0v1v0v1v1v1v1v1v0v1v1v1v1v1v1v1v1v1v1v1v1v1v1v1v1v1v1v1v1v1v1v1v1v1v1v1v1v1v1v1v1v1v1v1v1v1v1v1v1v1v1v1v1v1v1v1v1v1v1v1v1v1v1v1v1v1v1v1v1v1v1v1v2v1v1v1v1v1v1v1v1v1v1v1v1v2v1v1v1v1v1
v1v1v2v1v1v1v1v1v2v1v1v1v1v2v1v1v1v1v2v1v1v1v2v1v1v1v2v1v1v1v2v1v1v2v1v1v1v2v1v1v2v1v1v2v1v1v2v1v1v2v1v1v2v1v2v1v1v2v1v1v2v1v2v1v1v2v1v2v1v2v1v1v2v1v2v1v2v1v2v1v2v1v1v2v1v2v1v2v1v2v1v2v1v2v2v1v2v1v2v1v2v1v2v1v2v1v2v2v1v2v1v2v1v2v2v1v2v1v2v2v1v2v1v2v2v1v2
v2v1v2v2v1v2v1v2v2v1v2v2v1v2v2v2v1v2v2v1v2v2v1v2v2v2v1v2v2v1v2v2v2v1v2v2v2v1v2v2v2v2v1v2v2v2v1v2v2v2v2v1v2v2v2v2v2v1v2v2v2v2v2v1v2v2v2v2v2v2v2v1v2v2v2v2v2v2v2v2v2v2v2v2v2v1v2v2v10q0 107 54.5 164t149.5 57q84 0 136 -43.5t52 -114.5q0 -139 -162 -151z" />
    <glyph glyph-name="agrave" unicode="&#xe0;" horiz-adv-x="505" 
d="M207 43q74 0 122.5 41t48.5 105v44l-28 -1q-126 -5 -186.5 -30t-60.5 -80q0 -36 28 -57.5t76 -21.5zM378 284v17q0 61 -34.5 94t-99.5 33q-105 0 -152 -88q0 -1 -9 1.5t-18.5 11.5t-9.5 25q0 32 54.5 71t139.5 39q91 0 142 -49.5t51 -135.5v-300q0 -1 -3 -2.5t-8 -3
t-11 -1.5q-41 0 -41 63v18q-28 -41 -74.5 -64.5t-103.5 -23.5q-77 0 -120.5 36t-43.5 97q0 82 81.5 120t249.5 42h10zM159 620q-37 25 -37 50q0 12 9 19.5t21 7.5q22 0 46 -18q29 -21 60.5 -51.5t49 -52t15.5 -24.5q-3 -3 -29 4.5t-65 25.5t-70 39z" />
    <glyph glyph-name="aacute" unicode="&#xe1;" horiz-adv-x="505" 
d="M207 43q74 0 122.5 41t48.5 105v44l-28 -1q-126 -5 -186.5 -30t-60.5 -80q0 -36 28 -57.5t76 -21.5zM378 284v17q0 61 -34.5 94t-99.5 33q-105 0 -152 -88q0 -1 -9 1.5t-18.5 11.5t-9.5 25q0 32 54.5 71t139.5 39q91 0 142 -49.5t51 -135.5v-300q0 -1 -3 -2.5t-8 -3
t-11 -1.5q-41 0 -41 63v18q-28 -41 -74.5 -64.5t-103.5 -23.5q-77 0 -120.5 36t-43.5 97q0 82 81.5 120t249.5 42h10zM181 551q-2 3 15.5 24.5t49 52t60.5 51.5q24 18 46 18q12 0 21 -7.5t9 -19.5q0 -25 -37 -50q-31 -21 -70 -39t-65 -25.5t-29 -4.5z" />
    <glyph glyph-name="acircumflex" unicode="&#xe2;" horiz-adv-x="505" 
d="M207 43q74 0 122.5 41t48.5 105v44l-28 -1q-126 -5 -186.5 -30t-60.5 -80q0 -36 28 -57.5t76 -21.5zM378 284v17q0 61 -34.5 94t-99.5 33q-105 0 -152 -88q0 -1 -9 1.5t-18.5 11.5t-9.5 25q0 32 54.5 71t139.5 39q91 0 142 -49.5t51 -135.5v-300q0 -1 -3 -2.5t-8 -3
t-11 -1.5q-41 0 -41 63v18q-28 -41 -74.5 -64.5t-103.5 -23.5q-77 0 -120.5 36t-43.5 97q0 82 81.5 120t249.5 42h10zM251 661q-48 -65 -70 -88.5t-38 -23.5q-22 0 -22 23q0 21 32 58t63.5 63t35.5 26t35 -26t63 -63t32 -58q0 -23 -21 -23q-16 0 -39.5 24.5t-70.5 87.5z" />
    <glyph glyph-name="atilde" unicode="&#xe3;" horiz-adv-x="505" 
d="M207 43q74 0 122.5 41t48.5 105v44l-28 -1q-126 -5 -186.5 -30t-60.5 -80q0 -36 28 -57.5t76 -21.5zM378 284v17q0 61 -34.5 94t-99.5 33q-105 0 -152 -88q0 -1 -9 1.5t-18.5 11.5t-9.5 25q0 32 54.5 71t139.5 39q91 0 142 -49.5t51 -135.5v-300q0 -1 -3 -2.5t-8 -3
t-11 -1.5q-41 0 -41 63v18q-28 -41 -74.5 -64.5t-103.5 -23.5q-77 0 -120.5 36t-43.5 97q0 82 81.5 120t249.5 42h10zM134 555q-25 0 -25 26q0 34 20 62t49 28q25 0 66 -21.5t82 -58.5q23 73 46 73q25 0 25 -26q0 -34 -20 -62t-49 -28q-25 0 -66 21.5t-82 58.5
q-23 -73 -46 -73z" />
    <glyph glyph-name="adieresis" unicode="&#xe4;" horiz-adv-x="505" 
d="M207 43q74 0 122.5 41t48.5 105v44l-28 -1q-126 -5 -186.5 -30t-60.5 -80q0 -36 28 -57.5t76 -21.5zM378 284v17q0 61 -34.5 94t-99.5 33q-105 0 -152 -88q0 -1 -9 1.5t-18.5 11.5t-9.5 25q0 32 54.5 71t139.5 39q91 0 142 -49.5t51 -135.5v-300q0 -1 -3 -2.5t-8 -3
t-11 -1.5q-41 0 -41 63v18q-28 -41 -74.5 -64.5t-103.5 -23.5q-77 0 -120.5 36t-43.5 97q0 82 81.5 120t249.5 42h10zM337 548q-23 0 -36.5 13t-13.5 36t13 36t35 13q23 0 36.5 -13t13.5 -36t-13.5 -36t-34.5 -13zM169 548q-23 0 -36.5 13t-13.5 36t13.5 36t34.5 13
q23 0 36.5 -13t13.5 -36t-13 -36t-35 -13z" />
    <glyph glyph-name="aring" unicode="&#xe5;" horiz-adv-x="505" 
d="M207 43q74 0 122.5 41t48.5 105v44l-28 -1q-126 -5 -186.5 -30t-60.5 -80q0 -36 28 -57.5t76 -21.5zM378 284v17q0 61 -34.5 94t-99.5 33q-105 0 -152 -88q0 -1 -9 1.5t-18.5 11.5t-9.5 25q0 32 54.5 71t139.5 39q91 0 142 -49.5t51 -135.5v-300q0 -1 -3 -2.5t-8 -3
t-11 -1.5q-41 0 -41 63v18q-28 -41 -74.5 -64.5t-103.5 -23.5q-77 0 -120.5 36t-43.5 97q0 82 81.5 120t249.5 42h10zM251 548q-51 0 -83.5 33t-32.5 84q0 50 33.5 83.5t83.5 33.5q51 0 83.5 -33t32.5 -84q0 -50 -33.5 -83.5t-83.5 -33.5zM251 593q29 0 48 20.5t19 51.5
t-19.5 52t-47.5 21t-47.5 -21t-19.5 -52q0 -30 19.5 -51t47.5 -21z" />
    <glyph glyph-name="ae" unicode="&#xe6;" horiz-adv-x="865" 
d="M437 276h325q-5 71 -46 113t-107 42q-67 0 -114 -43t-58 -112zM207 43q74 0 122.5 41t48.5 105v44l-28 -1q-126 -5 -186.5 -30t-60.5 -80q0 -36 28 -57.5t76 -21.5zM378 284v17q0 61 -34.5 94t-99.5 33q-105 0 -152 -88q0 -1 -9 1.5t-18.5 11.5t-9.5 25q0 32 54.5 71
t139.5 39q129 0 171 -105q60 105 189 105q101 0 161.5 -65.5t60.5 -174.5v-6q0 -13 -6 -17.5t-21 -4.5h-370q4 -76 54.5 -125t126.5 -49q110 0 163 85q1 2 10.5 -1t18.5 -12.5t9 -23.5q0 -31 -57 -68.5t-144 -37.5q-74 0 -128 32t-81 90q-26 -55 -81 -88t-124 -33
q-77 0 -120.5 36t-43.5 97q0 82 81.5 120t249.5 42h10z" />
    <glyph glyph-name="ccedilla" unicode="&#xe7;" horiz-adv-x="518" 
d="M280 -12q-105 0 -175 71.5t-70 179.5t70 178.5t175 70.5q93 0 149 -45.5t56 -86.5q0 -13 -10.5 -22t-20.5 -9.5t-12 0.5q-44 105 -162 105q-77 0 -128 -54t-51 -137t51 -138t128 -55q118 0 162 105q2 1 12 0.5t20.5 -9.5t10.5 -22q0 -41 -56 -86.5t-149 -45.5zM217 -225
q-7 -8 -23 -3t-10 19l60 125q7 14 10 19t10.5 10t19.5 5h5q14 0 24.5 -8t10.5 -21v-4q0 -10 -26 -41z" />
    <glyph glyph-name="egrave" unicode="&#xe8;" horiz-adv-x="531" 
d="M103 276h325q-5 71 -46 113t-107 42q-67 0 -114 -43t-58 -112zM100 220q4 -76 54.5 -125t126.5 -49q110 0 163 85q1 2 10.5 -1t18.5 -12.5t9 -23.5q0 -31 -57 -68.5t-144 -37.5q-109 0 -177.5 69t-68.5 179q0 109 68 180.5t172 71.5q101 0 161.5 -65.5t60.5 -174.5v-6
q0 -13 -6 -17.5t-21 -4.5h-370zM167 620q-37 25 -37 50q0 12 9 19.5t21 7.5q22 0 46 -18q29 -21 60.5 -51.5t49 -52t15.5 -24.5q-3 -3 -29 4.5t-65 25.5t-70 39z" />
    <glyph glyph-name="eacute" unicode="&#xe9;" horiz-adv-x="531" 
d="M103 276h325q-5 71 -46 113t-107 42q-67 0 -114 -43t-58 -112zM100 220q4 -76 54.5 -125t126.5 -49q110 0 163 85q1 2 10.5 -1t18.5 -12.5t9 -23.5q0 -31 -57 -68.5t-144 -37.5q-109 0 -177.5 69t-68.5 179q0 109 68 180.5t172 71.5q101 0 161.5 -65.5t60.5 -174.5v-6
q0 -13 -6 -17.5t-21 -4.5h-370zM204 551q-2 3 15.5 24.5t49 52t60.5 51.5q24 18 46 18q12 0 21 -7.5t9 -19.5q0 -25 -37 -50q-31 -21 -70 -39t-65 -25.5t-29 -4.5z" />
    <glyph glyph-name="ecircumflex" unicode="&#xea;" horiz-adv-x="531" 
d="M103 276h325q-5 71 -46 113t-107 42q-67 0 -114 -43t-58 -112zM100 220q4 -76 54.5 -125t126.5 -49q110 0 163 85q1 2 10.5 -1t18.5 -12.5t9 -23.5q0 -31 -57 -68.5t-144 -37.5q-109 0 -177.5 69t-68.5 179q0 109 68 180.5t172 71.5q101 0 161.5 -65.5t60.5 -174.5v-6
q0 -13 -6 -17.5t-21 -4.5h-370zM274 661q-48 -65 -70 -88.5t-38 -23.5q-22 0 -22 23q0 21 32 58t63.5 63t35.5 26t35 -26t63 -63t32 -58q0 -23 -21 -23q-16 0 -39.5 24.5t-70.5 87.5z" />
    <glyph glyph-name="edieresis" unicode="&#xeb;" horiz-adv-x="531" 
d="M103 276h325q-5 71 -46 113t-107 42q-67 0 -114 -43t-58 -112zM100 220q4 -76 54.5 -125t126.5 -49q110 0 163 85q1 2 10.5 -1t18.5 -12.5t9 -23.5q0 -31 -57 -68.5t-144 -37.5q-109 0 -177.5 69t-68.5 179q0 109 68 180.5t172 71.5q101 0 161.5 -65.5t60.5 -174.5v-6
q0 -13 -6 -17.5t-21 -4.5h-370zM360 548q-23 0 -36.5 13t-13.5 36t13 36t35 13q23 0 36.5 -13t13.5 -36t-13.5 -36t-34.5 -13zM192 548q-23 0 -36.5 13t-13.5 36t13.5 36t34.5 13q23 0 36.5 -13t13.5 -36t-13 -36t-35 -13z" />
    <glyph glyph-name="igrave" unicode="&#xec;" horiz-adv-x="209" 
d="M101 -4q-29 0 -29 31v422q0 31 29 31h7q29 0 29 -31v-422q0 -31 -29 -31h-7zM109 620q-37 25 -37 50q0 12 9 19.5t21 7.5q22 0 46 -18q29 -21 60.5 -51.5t49 -52t15.5 -24.5q-3 -3 -29 4.5t-65 25.5t-70 39z" />
    <glyph glyph-name="iacute" unicode="&#xed;" horiz-adv-x="209" 
d="M101 -4q-29 0 -29 31v422q0 31 29 31h7q29 0 29 -31v-422q0 -31 -29 -31h-7zM76 551q-2 3 15.5 24.5t49 52t60.5 51.5q24 18 46 18q12 0 21 -7.5t9 -19.5q0 -25 -37 -50q-31 -21 -70 -39t-65 -25.5t-29 -4.5z" />
    <glyph glyph-name="icircumflex" unicode="&#xee;" horiz-adv-x="209" 
d="M101 -4q-29 0 -29 31v422q0 31 29 31h7q29 0 29 -31v-422q0 -31 -29 -31h-7zM202 661q-48 -65 -70 -88.5t-38 -23.5q-22 0 -22 23q0 21 32 58t63.5 63t35.5 26t35 -26t63 -63t32 -58q0 -23 -21 -23q-16 0 -39.5 24.5t-70.5 87.5z" />
    <glyph glyph-name="idieresis" unicode="&#xef;" horiz-adv-x="209" 
d="M101 -4q-29 0 -29 31v422q0 31 29 31h7q29 0 29 -31v-422q0 -31 -29 -31h-7zM290 548q-23 0 -36.5 13t-13.5 36t13 36t35 13q23 0 36.5 -13t13.5 -36t-13.5 -36t-34.5 -13zM122 548q-23 0 -36.5 13t-13.5 36t13.5 36t34.5 13q23 0 36.5 -13t13.5 -36t-13 -36t-35 -13z
" />
    <glyph glyph-name="eth" unicode="&#xf0;" horiz-adv-x="565" 
d="M453 286q-19 35 -67.5 62.5t-101.5 27.5q-85 0 -130 -42t-45 -120q0 -81 45 -125t122 -44q83 0 130 59.5t47 153.5v28zM330 563l-125 -72q-26 -16 -39 7l-2 4q-14 22 13 38l101 55q-79 40 -175 40q-6 0 -1 19q10 36 50 36q99 0 192 -62l105 61q28 16 40 -7l2 -3
q13 -22 -14 -38l-87 -48q130 -116 130 -319q0 -134 -67 -210t-178 -76q-105 0 -168.5 60.5t-63.5 164.5q0 99 65.5 159.5t170.5 60.5q54 0 101.5 -23.5t72.5 -56.5q-20 133 -123 210z" />
    <glyph glyph-name="ntilde" unicode="&#xf1;" horiz-adv-x="545" 
d="M131 402q57 86 162 86q92 0 140.5 -56.5t48.5 -153.5v-251q0 -31 -29 -31h-7q-29 0 -29 31v247q0 72 -34 112.5t-94 40.5q-54 0 -94.5 -27t-62.5 -74v-299q0 -31 -29 -31h-7q-29 0 -29 31v446q0 1 3 2.5t8 3t11 1.5q42 0 42 -63v-15zM148 555q-25 0 -25 26q0 34 20 62
t49 28q25 0 66 -21.5t82 -58.5q23 73 46 73q25 0 25 -26q0 -34 -20 -62t-49 -28q-25 0 -66 21.5t-82 58.5q-23 -73 -46 -73z" />
    <glyph glyph-name="ograve" unicode="&#xf2;" horiz-adv-x="562" 
d="M281 -12q-107 0 -176.5 71t-69.5 180q0 108 69.5 178.5t176.5 70.5q106 0 175.5 -71t69.5 -180q0 -108 -69.5 -178.5t-175.5 -70.5zM281 45q77 0 128 54.5t51 137.5t-51 138.5t-128 55.5t-128.5 -54.5t-51.5 -137.5t51.5 -138.5t128.5 -55.5zM171 620q-37 25 -37 50
q0 12 9 19.5t21 7.5q22 0 46 -18q29 -21 60.5 -51.5t49 -52t15.5 -24.5q-3 -3 -29 4.5t-65 25.5t-70 39z" />
    <glyph glyph-name="oacute" unicode="&#xf3;" horiz-adv-x="562" 
d="M281 -12q-107 0 -176.5 71t-69.5 180q0 108 69.5 178.5t176.5 70.5q106 0 175.5 -71t69.5 -180q0 -108 -69.5 -178.5t-175.5 -70.5zM281 45q77 0 128 54.5t51 137.5t-51 138.5t-128 55.5t-128.5 -54.5t-51.5 -137.5t51.5 -138.5t128.5 -55.5zM233 551q-2 3 15.5 24.5
t49 52t60.5 51.5q24 18 46 18q12 0 21 -7.5t9 -19.5q0 -25 -37 -50q-31 -21 -70 -39t-65 -25.5t-29 -4.5z" />
    <glyph glyph-name="ocircumflex" unicode="&#xf4;" horiz-adv-x="562" 
d="M281 -12q-107 0 -176.5 71t-69.5 180q0 108 69.5 178.5t176.5 70.5q106 0 175.5 -71t69.5 -180q0 -108 -69.5 -178.5t-175.5 -70.5zM281 45q77 0 128 54.5t51 137.5t-51 138.5t-128 55.5t-128.5 -54.5t-51.5 -137.5t51.5 -138.5t128.5 -55.5zM283 661q-48 -65 -70 -88.5
t-38 -23.5q-22 0 -22 23q0 21 32 58t63.5 63t35.5 26t35 -26t63 -63t32 -58q0 -23 -21 -23q-16 0 -39.5 24.5t-70.5 87.5z" />
    <glyph glyph-name="otilde" unicode="&#xf5;" horiz-adv-x="562" 
d="M281 -12q-107 0 -176.5 71t-69.5 180q0 108 69.5 178.5t176.5 70.5q106 0 175.5 -71t69.5 -180q0 -108 -69.5 -178.5t-175.5 -70.5zM281 45q77 0 128 54.5t51 137.5t-51 138.5t-128 55.5t-128.5 -54.5t-51.5 -137.5t51.5 -138.5t128.5 -55.5zM166 555q-25 0 -25 26
q0 34 20 62t49 28q25 0 66 -21.5t82 -58.5q23 73 46 73q25 0 25 -26q0 -34 -20 -62t-49 -28q-25 0 -66 21.5t-82 58.5q-23 -73 -46 -73z" />
    <glyph glyph-name="odieresis" unicode="&#xf6;" horiz-adv-x="562" 
d="M281 -12q-107 0 -176.5 71t-69.5 180q0 108 69.5 178.5t176.5 70.5q106 0 175.5 -71t69.5 -180q0 -108 -69.5 -178.5t-175.5 -70.5zM281 45q77 0 128 54.5t51 137.5t-51 138.5t-128 55.5t-128.5 -54.5t-51.5 -137.5t51.5 -138.5t128.5 -55.5zM369 548q-23 0 -36.5 13
t-13.5 36t13 36t35 13q23 0 36.5 -13t13.5 -36t-13.5 -36t-34.5 -13zM201 548q-23 0 -36.5 13t-13.5 36t13.5 36t34.5 13q23 0 36.5 -13t13.5 -36t-13 -36t-35 -13z" />
    <glyph glyph-name="oslash" unicode="&#xf8;" horiz-adv-x="562" 
d="M71 -36q-2 -2 -9 1.5t-14 11.5t-7 17q0 19 22 44l35 38q-55 70 -55 161q0 105 70.5 178t171.5 73q81 0 145 -48l64 71q2 2 9 -1.5t14 -11.5t7 -17q0 -19 -22 -44l-32 -35q56 -70 56 -163q0 -105 -70.5 -178t-171.5 -73q-82 0 -147 49zM144 122l245 270q-47 37 -105 37
q-76 0 -125.5 -54.5t-49.5 -136.5q0 -65 35 -116zM285 47q76 0 125.5 54.5t49.5 136.5q0 67 -36 117l-246 -270q48 -38 107 -38z" />
    <glyph glyph-name="ugrave" unicode="&#xf9;" horiz-adv-x="545" 
d="M414 74q-57 -86 -162 -86q-92 0 -140.5 56.5t-48.5 153.5v251q0 31 29 31h7q29 0 29 -31v-247q0 -72 35 -112.5t98 -40.5q51 0 90.5 27.5t61.5 73.5v299q0 31 29 31h7q29 0 29 -31v-446q0 -1 -3 -2.5t-8 -3t-11 -1.5q-42 0 -42 63v15zM159 620q-37 25 -37 50q0 12 9 19.5
t21 7.5q22 0 46 -18q29 -21 60.5 -51.5t49 -52t15.5 -24.5q-3 -3 -29 4.5t-65 25.5t-70 39z" />
    <glyph glyph-name="uacute" unicode="&#xfa;" horiz-adv-x="545" 
d="M414 74q-57 -86 -162 -86q-92 0 -140.5 56.5t-48.5 153.5v251q0 31 29 31h7q29 0 29 -31v-247q0 -72 35 -112.5t98 -40.5q51 0 90.5 27.5t61.5 73.5v299q0 31 29 31h7q29 0 29 -31v-446q0 -1 -3 -2.5t-8 -3t-11 -1.5q-42 0 -42 63v15zM231 551q-2 3 15.5 24.5t49 52
t60.5 51.5q24 18 46 18q12 0 21 -7.5t9 -19.5q0 -25 -37 -50q-31 -21 -70 -39t-65 -25.5t-29 -4.5z" />
    <glyph glyph-name="ucircumflex" unicode="&#xfb;" horiz-adv-x="545" 
d="M414 74q-57 -86 -162 -86q-92 0 -140.5 56.5t-48.5 153.5v251q0 31 29 31h7q29 0 29 -31v-247q0 -72 35 -112.5t98 -40.5q51 0 90.5 27.5t61.5 73.5v299q0 31 29 31h7q29 0 29 -31v-446q0 -1 -3 -2.5t-8 -3t-11 -1.5q-42 0 -42 63v15zM273 661q-48 -65 -70 -88.5
t-38 -23.5q-22 0 -22 23q0 21 32 58t63.5 63t35.5 26t35 -26t63 -63t32 -58q0 -23 -21 -23q-16 0 -39.5 24.5t-70.5 87.5z" />
    <glyph glyph-name="udieresis" unicode="&#xfc;" horiz-adv-x="545" 
d="M414 74q-57 -86 -162 -86q-92 0 -140.5 56.5t-48.5 153.5v251q0 31 29 31h7q29 0 29 -31v-247q0 -72 35 -112.5t98 -40.5q51 0 90.5 27.5t61.5 73.5v299q0 31 29 31h7q29 0 29 -31v-446q0 -1 -3 -2.5t-8 -3t-11 -1.5q-42 0 -42 63v15zM360 548q-23 0 -36.5 13t-13.5 36
t13 36t35 13q23 0 36.5 -13t13.5 -36t-13.5 -36t-34.5 -13zM192 548q-23 0 -36.5 13t-13.5 36t13.5 36t34.5 13q23 0 36.5 -13t13.5 -36t-13 -36t-35 -13z" />
    <glyph glyph-name="yacute" unicode="&#xfd;" horiz-adv-x="472" 
d="M183 -197q-8 0 -16.5 3.5t-13.5 7.5t-4 6l80 204q-17 0 -25 5t-15 20l-174 412q-1 2 2.5 6.5t11.5 8.5t18 4q17 0 28 -9.5t21 -35.5l151 -373l131 371q16 47 48 47q8 0 16.5 -3.5t13 -7.5t3.5 -6l-230 -617q-16 -43 -46 -43zM185 541q-2 3 15.5 24.5t49 52t60.5 51.5
q24 18 46 18q12 0 21 -7.5t9 -19.5q0 -25 -37 -50q-31 -21 -70 -39t-65 -25.5t-29 -4.5z" />
    <glyph glyph-name="thorn" unicode="&#xfe;" horiz-adv-x="579" 
d="M132 320v-132q7 -61 55.5 -102t112.5 -41q76 0 122 53.5t46 139.5q0 84 -47 138.5t-119 54.5q-121 0 -170 -111zM132 80v-246q0 -31 -29 -31h-7q-29 0 -29 31v840q0 1 3 2.5t8 3t11 1.5q43 0 43 -63v-220q68 90 177 90q96 0 160.5 -69t64.5 -180q0 -112 -64.5 -181.5
t-164.5 -69.5q-60 0 -105.5 26.5t-67.5 65.5z" />
    <glyph glyph-name="ydieresis" unicode="&#xff;" horiz-adv-x="472" 
d="M183 -197q-8 0 -16.5 3.5t-13.5 7.5t-4 6l80 204q-17 0 -25 5t-15 20l-174 412q-1 2 2.5 6.5t11.5 8.5t18 4q17 0 28 -9.5t21 -35.5l151 -373l131 371q16 47 48 47q8 0 16.5 -3.5t13 -7.5t3.5 -6l-230 -617q-16 -43 -46 -43zM325 548q-23 0 -36.5 13t-13.5 36t13 36
t35 13q23 0 36.5 -13t13.5 -36t-13.5 -36t-34.5 -13zM157 548q-23 0 -36.5 13t-13.5 36t13.5 36t34.5 13q23 0 36.5 -13t13.5 -36t-13 -36t-35 -13z" />
    <glyph glyph-name="dotlessi" unicode="&#x131;" horiz-adv-x="209" 
d="M101 -4q-29 0 -29 31v422q0 31 29 31h7q29 0 29 -31v-422q0 -31 -29 -31h-7z" />
    <glyph glyph-name="Lslash" unicode="&#x141;" horiz-adv-x="535" 
d="M180 256v-194h302q31 0 31 -29v-5q0 -28 -31 -28h-332q-16 0 -27 11t-11 27v198l-81 -25q-2 -1 -5 3t-6 12t-3 15q0 28 45 41l50 15v323q0 31 29 31h9q30 0 30 -31v-302l202 62q2 1 5.5 -3.5t6 -12t2.5 -14.5q0 -27 -45 -41q-171 -52 -171 -53z" />
    <glyph glyph-name="lslash" unicode="&#x142;" horiz-adv-x="324" 
d="M191 266v-239q0 -31 -29 -31h-7q-29 0 -29 31v219l-24 -7q-24 -7 -48 -15l-24 -7q-2 -1 -5 4t-6 13t-3 14q0 26 44 39l66 20v367q0 1 3 2.5t8 3t11 1.5q43 0 43 -63v-291l103 32q2 1 5 -4t6 -13t3 -14q0 -26 -44 -39q-73 -22 -73 -23z" />
    <glyph glyph-name="OE" unicode="&#x152;" horiz-adv-x="1031" 
d="M371 -12q-143 0 -232 93t-89 241t90.5 242.5t232.5 94.5q49 0 93 -12h491q31 0 31 -28v-6q0 -28 -31 -28h-373q96 -82 108 -223h194q31 0 31 -28v-4q0 -28 -31 -28h-193q-8 -152 -110 -240h380q31 0 31 -27v-6q0 -29 -31 -29h-497q-44 -12 -95 -12zM373 47
q110 0 180.5 77t70.5 198t-71.5 199.5t-181.5 78.5t-180.5 -77.5t-70.5 -198.5t71.5 -199t181.5 -78z" />
    <glyph glyph-name="oe" unicode="&#x153;" horiz-adv-x="955" 
d="M527 276h325q-5 71 -46 113t-107 42q-67 0 -114 -43t-58 -112zM281 45q77 0 128 54.5t51 137.5t-51 138.5t-128 55.5t-128.5 -54.5t-51.5 -137.5t51.5 -138.5t128.5 -55.5zM490 112q-30 -57 -84.5 -90.5t-124.5 -33.5q-107 0 -176.5 71t-69.5 180q0 108 69.5 178.5
t176.5 70.5q71 0 126 -34t85 -93q29 59 83 93t124 34q101 0 161.5 -65.5t60.5 -174.5v-6q0 -13 -6 -17.5t-21 -4.5h-370q4 -76 54.5 -125t126.5 -49q110 0 163 85q1 2 10.5 -1t18.5 -12.5t9 -23.5q0 -31 -57 -68.5t-144 -37.5q-74 0 -130 32.5t-85 91.5z" />
    <glyph glyph-name="Scaron" unicode="&#x160;" horiz-adv-x="541" 
d="M274 -12q-99 0 -168 43t-69 84q0 13 9.5 23.5t19.5 15t11 2.5q64 -109 196 -109q75 0 117 32t42 88q0 30 -13.5 52.5t-42.5 37t-53.5 22.5t-68.5 18q-45 11 -74 21t-61 30.5t-48 53.5t-16 79q0 76 62 127t155 51q92 0 153 -37.5t61 -74.5q0 -13 -9.5 -23.5t-19.5 -15
t-11 -2.5q-24 42 -69.5 68t-103.5 26q-68 0 -110 -32.5t-42 -84.5q0 -24 9 -42.5t20.5 -30t36.5 -21.5t44 -15t56 -14q36 -8 62 -16.5t56.5 -24t49.5 -34.5t31.5 -48.5t12.5 -66.5q0 -83 -61.5 -132.5t-163.5 -49.5zM275 761q46 63 69 87.5t39 24.5q21 0 21 -23
q0 -21 -32 -58t-63 -63t-35 -26t-35 26t-63 63t-32 58q0 23 21 23q16 0 39.5 -24.5t70.5 -87.5z" />
    <glyph glyph-name="scaron" unicode="&#x161;" horiz-adv-x="454" 
d="M227 -12q-87 0 -141.5 32.5t-54.5 64.5q0 8 3.5 14.5t8.5 10.5t10 6.5t8.5 3.5t4.5 0q56 -77 163 -77q58 0 90.5 21.5t32.5 58.5q0 17 -6.5 29.5t-16 20.5t-30 15.5t-37.5 11.5t-50 11q-30 6 -47 10.5t-43 15.5t-40.5 23.5t-25.5 34t-11 49.5q0 64 50 104t132 40
q80 0 128 -30t48 -61q0 -11 -8.5 -20t-17.5 -12.5t-10 -1.5q-46 70 -140 70q-57 0 -88.5 -22t-31.5 -58t29.5 -52t103.5 -32q27 -6 40.5 -9.5t38.5 -11.5t38.5 -17t28.5 -22.5t22 -32.5t7 -43q0 -66 -50.5 -105.5t-137.5 -39.5zM221 591q46 63 69 87.5t39 24.5q21 0 21 -23
q0 -21 -32 -58t-63 -63t-35 -26t-35 26t-63 63t-32 58q0 23 21 23q16 0 39.5 -24.5t70.5 -87.5z" />
    <glyph glyph-name="Ydieresis" unicode="&#x178;" horiz-adv-x="549" 
d="M308 269v-242q0 -31 -30 -31h-9q-29 0 -29 31v242l-230 353q-2 3 2 9.5t14.5 13t24.5 6.5q21 0 34 -23l190 -297l189 296q16 24 34 24q13 0 23 -6.5t14.5 -13t2.5 -9.5zM361 718q-23 0 -36.5 13t-13.5 36t13 36t35 13q23 0 36.5 -13t13.5 -36t-13.5 -36t-34.5 -13z
M193 718q-23 0 -36.5 13t-13.5 36t13.5 36t34.5 13q23 0 36.5 -13t13.5 -36t-13 -36t-35 -13z" />
    <glyph glyph-name="Zcaron" unicode="&#x17d;" horiz-adv-x="604" 
d="M109 0q-55 0 -55 38v9q0 26 40 75l372 463h-380q-31 0 -31 28v5q0 29 31 29h401q54 0 54 -37v-9q0 -23 -39 -72l-375 -467h401q31 0 31 -28v-5q0 -29 -31 -29h-419zM297 761q46 63 69 87.5t39 24.5q21 0 21 -23q0 -21 -32 -58t-63 -63t-35 -26t-35 26t-63 63t-32 58
q0 23 21 23q16 0 39.5 -24.5t70.5 -87.5z" />
    <glyph glyph-name="zcaron" unicode="&#x17e;" horiz-adv-x="473" 
d="M71 0q-31 0 -31 28v9q0 12 25 43l278 340h-270q-33 0 -33 25v6q0 25 33 25h326q31 0 31 -28v-5q0 -10 -25 -41l-283 -346h282q33 0 33 -25v-6q0 -25 -33 -25h-333zM232 591q46 63 69 87.5t39 24.5q21 0 21 -23q0 -21 -32 -58t-63 -63t-35 -26t-35 26t-63 63t-32 58
q0 23 21 23q16 0 39.5 -24.5t70.5 -87.5z" />
    <glyph glyph-name="florin" unicode="&#x192;" horiz-adv-x="383" 
d="M119 378h-61q-31 0 -31 26v6q0 26 31 26h71l12 64q28 159 151 159q40 0 65.5 -17t25.5 -40q0 -10 -6 -20t-12 -15t-7 -4q-26 36 -72 36q-34 0 -53 -26t-29 -84l-10 -53h120q31 0 31 -26v-6q0 -26 -31 -26h-129l-60 -328q-9 -54 -42 -54q-8 0 -16 2.5t-12 5.5t-3 5z" />
    <glyph glyph-name="circumflex" unicode="&#x2c6;" 
d="M249 661q-48 -65 -70 -88.5t-38 -23.5q-22 0 -22 23q0 21 32 58t63.5 63t35.5 26t35 -26t63 -63t32 -58q0 -23 -21 -23q-16 0 -39.5 24.5t-70.5 87.5z" />
    <glyph glyph-name="caron" unicode="&#x2c7;" 
d="M251 591q46 63 69 87.5t39 24.5q21 0 21 -23q0 -21 -32 -58t-63 -63t-35 -26t-35 26t-63 63t-32 58q0 23 21 23q16 0 39.5 -24.5t70.5 -87.5z" />
    <glyph glyph-name="breve" unicode="&#x2d8;" 
d="M250 548q-42 0 -91.5 38t-49.5 67t29 29q9 0 25.5 -12.5t47.5 -41t41 -37.5q7 7 24 23.5t26.5 25.5t22.5 20.5t22 16.5t15 5q29 0 29 -29q0 -31 -50 -68t-91 -37z" />
    <glyph glyph-name="dotaccent" unicode="&#x2d9;" 
d="M250 549q-25 0 -40 14.5t-15 37.5t15.5 37.5t40.5 14.5q24 0 39 -14.5t15 -37.5t-15 -37.5t-40 -14.5z" />
    <glyph glyph-name="ring" unicode="&#x2da;" 
d="M249 548q-51 0 -83.5 33t-32.5 84q0 50 33.5 83.5t83.5 33.5q51 0 83.5 -33t32.5 -84q0 -50 -33.5 -83.5t-83.5 -33.5zM249 593q29 0 48 20.5t19 51.5t-19.5 52t-47.5 21t-47.5 -21t-19.5 -52q0 -30 19.5 -51t47.5 -21z" />
    <glyph glyph-name="ogonek" unicode="&#x2db;" 
d="M299 -199q-5 0 -9.5 0.5t-8 3t-5.5 3.5t-4.5 5.5t-4 6t-4.5 7.5l-4 8l-88 165h42l99 -125q26 -33 26 -41v-4q0 -13 -10 -21t-24 -8h-5z" />
    <glyph glyph-name="tilde" unicode="&#x2dc;" 
d="M131 555q-25 0 -25 26q0 34 20 62t49 28q25 0 66 -21.5t82 -58.5q23 73 46 73q25 0 25 -26q0 -34 -20 -62t-49 -28q-25 0 -66 21.5t-82 58.5q-23 -73 -46 -73z" />
    <glyph glyph-name="hungarumlaut" unicode="&#x2dd;" 
d="M279 551q-2 3 15.5 24.5t49 52t60.5 51.5q24 18 46 18q12 0 21 -7.5t9 -19.5q0 -25 -37 -50q-31 -21 -70 -39t-65 -25.5t-29 -4.5zM100 551q-2 3 15.5 24.5t49 52t60.5 51.5q24 18 46 18q12 0 21 -7.5t9 -19.5q0 -25 -37 -50q-31 -21 -70 -39t-65 -25.5t-29 -4.5z" />
    <glyph glyph-name="Delta" unicode="&#x394;" horiz-adv-x="531" 
d="M103 276h325q-5 71 -46 113t-107 42q-67 0 -114 -43t-58 -112zM100 220q4 -76 54.5 -125t126.5 -49q110 0 163 85q1 2 10.5 -1t18.5 -12.5t9 -23.5q0 -31 -57 -68.5t-144 -37.5q-109 0 -177.5 69t-68.5 179q0 109 68 180.5t172 71.5q101 0 161.5 -65.5t60.5 -174.5v-6
q0 -13 -6 -17.5t-21 -4.5h-370z" />
    <glyph glyph-name="Delta" unicode="&#x2206;" horiz-adv-x="531" 
d="M103 276h325q-5 71 -46 113t-107 42q-67 0 -114 -43t-58 -112zM100 220q4 -76 54.5 -125t126.5 -49q110 0 163 85q1 2 10.5 -1t18.5 -12.5t9 -23.5q0 -31 -57 -68.5t-144 -37.5q-109 0 -177.5 69t-68.5 179q0 109 68 180.5t172 71.5q101 0 161.5 -65.5t60.5 -174.5v-6
q0 -13 -6 -17.5t-21 -4.5h-370z" />
    <glyph glyph-name="Omega" unicode="&#x3a9;" horiz-adv-x="545" 
d="M413 83q-58 -85 -161 -85q-92 0 -140.5 56.5t-48.5 153.5v241q0 31 29 31h7q29 0 29 -31v-232q0 -75 33.5 -117.5t99.5 -42.5q50 0 90 27.5t62 73.5v259q0 63 42 63q6 0 11.5 -1.5t8.5 -3t3 -2.5v-466q0 -103 -56 -155t-163 -52q-91 0 -145.5 38.5t-54.5 73.5q0 13 9 24
t18 15t10 2q26 -48 61.5 -71t100.5 -23q81 0 118 36.5t37 120.5v67z" />
    <glyph glyph-name="Omega" unicode="&#x2126;" horiz-adv-x="545" 
d="M413 83q-58 -85 -161 -85q-92 0 -140.5 56.5t-48.5 153.5v241q0 31 29 31h7q29 0 29 -31v-232q0 -75 33.5 -117.5t99.5 -42.5q50 0 90 27.5t62 73.5v259q0 63 42 63q6 0 11.5 -1.5t8.5 -3t3 -2.5v-466q0 -103 -56 -155t-163 -52q-91 0 -145.5 38.5t-54.5 73.5q0 13 9 24
t18 15t10 2q26 -48 61.5 -71t100.5 -23q81 0 118 36.5t37 120.5v67z" />
    <glyph glyph-name="pi" unicode="&#x3c0;" horiz-adv-x="757" 
d="M378 -12q-144 0 -236 94t-92 240q0 145 94 241t235 96q144 0 236 -94t92 -240q0 -145 -94 -241t-235 -96zM380 36q121 0 197 80t76 207q0 124 -78.5 206t-197.5 82q-121 0 -197 -80t-76 -207q0 -124 78.5 -206t197.5 -82zM325 306h73q36 0 55 17.5t19 48.5q0 65 -78 65
h-69v-131zM326 257v-90q0 -28 -26 -28h-9q-25 0 -25 28v285q0 15 9 24.5t23 9.5h96q66 0 101.5 -29t35.5 -84q0 -56 -35 -86t-99 -30h-71z" />
    <glyph glyph-name="endash" unicode="&#x2013;" horiz-adv-x="525" 
d="M76 213q-31 0 -31 26v6q0 26 31 26h373q31 0 31 -26v-6q0 -26 -31 -26h-373z" />
    <glyph glyph-name="emdash" unicode="&#x2014;" horiz-adv-x="693" 
d="M76 213q-31 0 -31 26v6q0 26 31 26h541q31 0 31 -26v-6q0 -26 -31 -26h-541z" />
    <glyph glyph-name="quoteleft" unicode="&#x2018;" horiz-adv-x="202" 
d="M73 426q-13 0 -22 9.5t-9 26.5v3q0 22 17 49l84 141q5 10 22 5t11 -20l-59 -178q-5 -14 -9 -20t-11.5 -11t-19.5 -5h-4z" />
    <glyph glyph-name="quoteright" unicode="&#x2019;" horiz-adv-x="202" 
d="M59 432q-5 -9 -22 -4.5t-11 19.5l60 178q5 14 8.5 20.5t11 11t19.5 4.5h5q13 0 21.5 -9.5t8.5 -26.5v-3q0 -22 -16 -49z" />
    <glyph glyph-name="quotesinglbase" unicode="&#x201a;" horiz-adv-x="202" 
d="M49 -129q-5 -9 -22 -4.5t-11 19.5l60 178q5 14 8.5 20.5t11 11t19.5 4.5h5q13 0 21.5 -9.5t8.5 -26.5v-3q0 -22 -16 -49z" />
    <glyph glyph-name="quotedblleft" unicode="&#x201c;" horiz-adv-x="355" 
d="M226 426q-13 0 -21.5 9.5t-8.5 26.5v3q0 22 16 49l85 141q6 9 22 4.5t11 -19.5l-60 -178q-7 -21 -14 -28.5t-25 -7.5h-5zM72 426q-13 0 -21.5 9.5t-8.5 26.5v3q0 22 16 49l85 141q6 9 22 4.5t11 -19.5l-60 -178q-7 -21 -14 -28.5t-25 -7.5h-5z" />
    <glyph glyph-name="quotedblright" unicode="&#x201d;" horiz-adv-x="355" 
d="M212 432q-5 -9 -22 -4.5t-11 19.5l60 178q5 14 8.5 20.5t11 11t19.5 4.5h5q13 0 21.5 -9.5t8.5 -26.5v-3q0 -22 -16 -49zM58 432q-5 -9 -22 -4.5t-11 19.5l60 178q5 14 8.5 20.5t11 11t19.5 4.5h5q13 0 21.5 -9.5t8.5 -26.5v-3q0 -22 -16 -49z" />
    <glyph glyph-name="quotedblbase" unicode="&#x201e;" horiz-adv-x="355" 
d="M202 -129q-5 -9 -22 -4.5t-11 19.5l60 178q5 14 8.5 20.5t11 11t19.5 4.5h5q13 0 21.5 -9.5t8.5 -26.5v-3q0 -22 -16 -49zM48 -129q-5 -9 -22 -4.5t-11 19.5l60 178q5 14 8.5 20.5t11 11t19.5 4.5h5q13 0 21.5 -9.5t8.5 -26.5v-3q0 -22 -16 -49z" />
    <glyph glyph-name="dagger" unicode="&#x2020;" horiz-adv-x="510" 
d="M250 -160q-12 0 -15.5 5.5t-4.5 17.5l-15 435q-2 42 24 82l-164 -22q-26 -4 -36.5 5.5t-10.5 32.5t10.5 32.5t36.5 5.5l164 -22l-24 194q-4 26 6 36.5t34 10.5t34 -10.5t6 -36.5l-24 -194l164 22q26 4 36.5 -5.5t10.5 -32.5t-10.5 -32.5t-36.5 -5.5l-164 22
q26 -40 24 -82l-15 -435q-1 -12 -4.5 -17.5t-15.5 -5.5h-10z" />
    <glyph glyph-name="daggerdbl" unicode="&#x2021;" horiz-adv-x="510" 
d="M250 -160q-12 0 -15.5 5.5t-4.5 17.5l-8 240l-147 -21q-26 -4 -36.5 5.5t-10.5 32.5t10.5 32.5t36.5 5.5l146 -21l-6 161q-2 43 26 82l-166 -22q-26 -4 -36.5 5.5t-10.5 32.5t10.5 32.5t36.5 5.5l164 -22l-24 194q-4 26 6 36.5t34 10.5t34 -10.5t6 -36.5l-24 -194l164 22
q26 4 36.5 -5.5t10.5 -32.5t-10.5 -32.5t-36.5 -5.5l-166 22q28 -39 26 -82l-6 -161l146 21q26 4 36.5 -5.5t10.5 -32.5t-10.5 -32.5t-36.5 -5.5l-147 21l-8 -240q-1 -12 -4.5 -17.5t-15.5 -5.5h-10z" />
    <glyph glyph-name="bullet" unicode="&#x2022;" horiz-adv-x="324" 
d="M162 139q-43 0 -72.5 30t-29.5 73t29.5 73.5t72.5 30.5t72.5 -30.5t29.5 -73.5t-29.5 -73t-72.5 -30z" />
    <glyph glyph-name="ellipsis" unicode="&#x2026;" horiz-adv-x="627" 
d="M517 -6q-44 0 -44 44v10q0 45 44 45h10q45 0 45 -45v-10q0 -44 -45 -44h-10zM308 -6q-44 0 -44 44v10q0 45 44 45h10q45 0 45 -45v-10q0 -44 -45 -44h-10zM99 -6q-44 0 -44 44v10q0 45 44 45h10q45 0 45 -45v-10q0 -44 -45 -44h-10z" />
    <glyph glyph-name="perthousand" unicode="&#x2030;" horiz-adv-x="1086" 
d="M186 347q-63 0 -106 43.5t-43 105.5v10q0 62 44 106.5t106 44.5q63 0 106 -43.5t43 -105.5v-10q0 -62 -44 -106.5t-106 -44.5zM113 -8q-2 -2 -9.5 0.5t-15 10t-7.5 17.5q0 22 30 55l503 586q2 2 9.5 0t15 -9.5t7.5 -18.5q0 -21 -30 -55zM899 -4q-63 0 -106 43.5
t-43 105.5v10q0 62 44 106.5t106 44.5q63 0 106 -43.5t43 -105.5v-10q0 -62 -44 -106.5t-106 -44.5zM545 -4q-63 0 -106 43.5t-43 105.5v10q0 62 44 106.5t106 44.5q63 0 106 -43.5t43 -105.5v-10q0 -62 -44 -106.5t-106 -44.5zM187 399q39 0 64.5 27.5t25.5 68.5v14
q0 41 -26 69t-65 28t-64.5 -27.5t-25.5 -69.5v-14q0 -41 26 -68.5t65 -27.5zM900 48q39 0 64.5 27.5t25.5 68.5v14q0 41 -26 69t-65 28t-64.5 -27.5t-25.5 -69.5v-14q0 -41 26 -68.5t65 -27.5zM546 48q39 0 64.5 27.5t25.5 68.5v14q0 41 -26 69t-65 28t-64.5 -27.5
t-25.5 -69.5v-14q0 -41 26 -68.5t65 -27.5z" />
    <glyph glyph-name="guilsinglleft" unicode="&#x2039;" horiz-adv-x="312" 
d="M106 242q156 -107 156 -139v-3q0 -9 -7 -15.5t-17 -6.5h-1q-26 0 -73.5 38.5t-83 78.5t-35.5 48t35.5 47.5t83 78.5t73.5 39h1q10 0 17 -7t7 -16v-2q0 -31 -156 -141z" />
    <glyph glyph-name="guilsinglright" unicode="&#x203a;" horiz-adv-x="312" 
d="M207 242q-156 108 -156 141v2q0 9 7 16t16 7h1q26 0 73.5 -39t83 -78.5t35.5 -47.5t-35.5 -48t-83 -78.5t-73.5 -38.5h-1q-10 0 -16.5 7t-6.5 15v3q0 32 156 139z" />
    <glyph glyph-name="fraction" unicode="&#x2044;" horiz-adv-x="625" 
d="M52 -8q-2 -2 -9.5 0.5t-15 10t-7.5 17.5q0 22 30 55l523 586q2 2 9.5 0t15 -9.5t7.5 -18.5q0 -21 -30 -55z" />
    <glyph glyph-name="Euro" unicode="&#x20ac;" horiz-adv-x="626" 
d="M130 376h-63q-31 0 -31 26v6q0 26 31 26h70q20 104 85.5 164.5t161.5 60.5q86 0 143 -41.5t57 -81.5q0 -14 -9.5 -23.5t-19 -12.5t-10.5 -1q-55 103 -165 103q-66 0 -113 -45t-64 -123h216q31 0 31 -26v-6q0 -26 -31 -26h-224q-1 -9 -1 -28v-48q0 -16 1 -24h224
q31 0 31 -26v-6q0 -26 -31 -26h-216q18 -79 66 -125.5t117 -46.5q111 0 162 112q1 3 11 0t19.5 -13t9.5 -25q0 -42 -58 -87t-141 -45q-102 0 -168 60.5t-85 169.5h-69q-31 0 -31 26v6q0 26 31 26h63q-1 8 -1 26v45q0 19 1 29z" />
    <glyph glyph-name="trademark" unicode="&#x2122;" horiz-adv-x="677" 
d="M358 341q-21 0 -21 25v256q0 29 26 29h25q21 0 30 -22l63 -156l63 156q10 22 30 22h23q26 0 26 -29v-256q0 -25 -22 -25h-7q-21 0 -21 25v213l-65 -161q-5 -14 -28 -14q-11 0 -16.5 2t-7 4t-3.5 8l-66 160v-212q0 -25 -20 -25h-9zM126 600h-81q-24 0 -24 22v4q0 22 24 22
h214q24 0 24 -22v-4q0 -22 -24 -22h-80v-234q0 -25 -24 -25h-7q-22 0 -22 25v234z" />
    <glyph glyph-name="partialdiff" unicode="&#x2202;" horiz-adv-x="569" 
d="M438 215v104q-49 112 -169 112q-75 0 -121.5 -52.5t-46.5 -134.5q0 -85 45 -135.5t121 -50.5q69 0 120 45t51 112zM438 406v11q0 63 41 63q6 0 11.5 -1.5t8.5 -3t3 -2.5v-449q0 -111 -58.5 -167.5t-167.5 -56.5q-92 0 -151 38t-59 74q0 15 9 26t18.5 14.5t10.5 0.5
q51 -95 173 -95q160 0 160 166v64q-66 -86 -177 -86q-100 0 -162.5 66t-62.5 175q0 106 66 175.5t163 69.5q60 0 106 -23.5t68 -58.5z" />
    <glyph glyph-name="product" unicode="&#x220f;" horiz-adv-x="640" 
d="M496 98q-30 -49 -84.5 -79.5t-124.5 -30.5q-113 0 -166.5 58t-53.5 181v393q0 31 29 31h9q30 0 30 -31v-389q0 -98 36.5 -140t119.5 -42q67 0 125 43t79 104v424q0 31 29 31h9q30 0 30 -31v-618q0 -7 -23 -7q-44 0 -44 75v28z" />
    <glyph glyph-name="summation" unicode="&#x2211;" horiz-adv-x="574" 
d="M366 244v182q0 31 28 31h8q30 0 30 -31v-180h88q31 0 31 -29v-4q0 -29 -31 -29h-88v-157q0 -31 -30 -31h-8q-28 0 -28 31v157h-275q-51 0 -51 38v9q0 6 0.5 11t3 11t4 10t6 12t7.5 12.5t10.5 16t11.5 18.5l185 295q21 34 47 34q10 0 18 -5.5t12 -11t3 -7.5l-241 -383h259
z" />
    <glyph glyph-name="radical" unicode="&#x221a;" horiz-adv-x="720" 
d="M360 351q14 58 53 97.5t106 39.5h2q68 0 111 -47t43 -118v-6q0 -46 -21 -86.5t-59 -74t-75.5 -59t-85.5 -56t-74 -51.5q-26 21 -74 51.5t-85.5 56t-75.5 59t-59 74t-21 86.5v6q0 71 43 118t111 47h2q67 0 106 -39.5t53 -97.5z" />
    <glyph glyph-name="infinity" unicode="&#x221e;" horiz-adv-x="400" 
d="M167 591h-108q-31 0 -31 25v5q0 26 31 26h282q31 0 31 -26v-5q0 -25 -31 -25h-106v-535h106q31 0 31 -26v-5q0 -25 -31 -25h-282q-31 0 -31 25v5q0 26 31 26h108v535z" />
    <glyph glyph-name="integral" unicode="&#x222b;" horiz-adv-x="578" 
d="M255 261q-203 20 -203 278v81q0 31 29 31h9q30 0 30 -31v-80q0 -222 170 -222q86 0 128 55t42 168v79q0 31 29 31h9q28 0 28 -31v-78q0 -263 -203 -281v-234q0 -31 -30 -31h-9q-29 0 -29 31v234z" />
    <glyph glyph-name="lessequal" unicode="&#x2264;" horiz-adv-x="209" 
d="M104 595q-42 0 -42 43t44 43q42 0 42 -43t-44 -43zM101 -197q-29 0 -29 31v615q0 31 29 31h7q29 0 29 -31v-615q0 -31 -29 -31h-7z" />
    <glyph glyph-name="apple" horiz-adv-x="758" 
d="M348 -109l-53 136l-134 -58q-24 -11 -39.5 4.5t-4.5 39.5l58 134l-136 53q-24 9 -24 31t24 31l136 53l-58 134q-11 24 4.5 39.5t39.5 4.5l134 -58l53 136q9 24 31 24t31 -24l53 -136l134 58q24 11 39.5 -4.5t4.5 -39.5l-58 -134l136 -53q24 -9 24 -31t-24 -31l-136 -53
l58 -134q11 -24 -4.5 -39.5t-39.5 -4.5l-134 58l-53 -136q-9 -24 -31 -24t-31 24zM379 -43l49 119q3 7 10.5 10.5t14.5 0.5l120 -50l-50 120q-3 7 0.5 14.5t10.5 10.5l119 49l-119 49q-7 3 -10.5 10.5t-0.5 14.5l50 120l-120 -50q-17 -7 -25 11l-49 119l-49 -119
q-3 -7 -10.5 -10.5t-14.5 -0.5l-120 50l50 -120q3 -7 -0.5 -14.5t-10.5 -10.5l-119 -49l119 -49q7 -3 10.5 -10.5t0.5 -14.5l-50 -120l120 50q7 3 14.5 -0.5t10.5 -10.5z" />
  </font>
</defs>
</svg>
